Статистика раздачи
Размер:  14,04 GB   |    Зарегистрирован:  6 месяцев 1 день   |    Скачан:  0 раз
Сидов:  9  [  0 KB/s  ]   Личеров:  2  [  0 KB/s  ]  
 
     
 
 

Гость ®

Пол:
Не указан

Чужое лицо
Год выпуска: 2017
Производство: Гамма продакшн
Жанр: драма, криминальный фильм
Продолжительность: 20 x ~ 00:50:00
Субтитры: Нет
Режиссёр: Иван Криворучко, Григорий Жихаревич
В ролях: Алексей Кравченко, Валерий Соловьёв, Наталья Ткаченко, Антон Момот, Василий Щипицын, Юрий Орлов (II), Сергей Бызгу, Сергей Лысов, Евгений Ганелин, Аркадий Шароградский, Роман Жилкин, Андрей Дежонов, Павел Харизанов, Дмитрий Могучев, Александр Глебов, Георгий Маришин, Марина Доможирова, Дмитрий Кочкин, Александр Тютрюмов, Вадим Романов, Вадим Карев, Никита Плащевский, Ольга Павлюкова, Никита Барсуков, Николай Смирнов (III), Владимир Петров (VIII), Юлия Рудина, Сергей Мосьпан, Андрей Бабенко, Александра Родина, Юрий Сташин, Варвара Павлова, Дмитрий Лебедев, Иван Криворучко, Борис Драгилёв, Владимир Кутейников, Виталий Бисеров, Дмитрий Енин, Ирина Патракова, Александр Габов, Марк Горонок, Алексей Парасевич, Егор Бакулин, Евгений Капитонов, Андрей Шимко, Илья Савельев, Варвара Гусинская, Стефан Отто, Сергей Бледных, Евгений Александров, Роман Грибков, Юрий Елагин, Дмитрий Соловьёв (II), Андрей Пынзару, Константин Гришанов, Надежда Кулакова, Сергей Кошонин, Кирилл Иванов, Евгений Бойцов (III), Богдан Псел, Оксана Обухович, Светлана Вильгельм, Филипп Дьячков (II), Александр Большаков, Вадим Бурлаков, Даниил Кокин, Виталий Исаков, Оксана Сурнина, Алексей Федькин, Елена Мартыненко
Описание: Расследуя гибель бывшего спортсмена Чеснокова, занимавшегося растаможкой нелегальных грузов, следователь Егор Котов замечает на месте преступления своего сына Дениса. Выясняется, что теперь его сын - сотрудник полиции, работающий под прикрытием. Однако операция, которая готовилась годами, сорвана. Ситуация выходит из-под контроля, и волею случая Денис отправляется в Соловецк, куда ведут нити зреющего заговора, и пропадает. Котов устремляется на его поиски, но оказывается в центре нового конфликта. Теперь в чужом городе, под чужим именем он - внедренный в мафию сотрудник полиции. Здесь он не Котов, а Евгений Лаврин. И ему предстоит раскрыть серию преступлений в Соловецке, и - самое главное - во что бы то ни стало найти своего сына!
Реклама: Нет
Сэмпл: http://multi-up.com/1231999
Качество: WEBRip-AVC
Формат: MKV
Видео кодек: H.264
Аудио кодек: AC3
Видео: MPEG-4 (AVC), 1024x576, 25 fps, ~ 1800 kbps, ~ 0.12 bit/pixel
Аудио: AC3, 2 ch, 192 kbps, 48.0 kHz

MI

General
Unique ID : 173801055299704226187514726974523430887 (0x82C0DD9CFE53FA8EA9C6556A1013D7E7)
Complete name : Чужое лицо (01 сер.).mkv
Format : Matroska
Format version : Version 2
File size : 729 MiB
Duration : 51 min 9 s
Overall bit rate : 1 992 kb/s
Encoded date : UTC 2019-05-12 09:40:05
Writing application : mkvmerge v7.8.0 ('River Man') 32bit built on Apr 3 2015 12:11:22
Writing library : libebml v1.3.1 + libmatroska v1.4.2
Video
ID : 1
Format : AVC
Format/Info : Advanced Video Codec
Format profile : High@L3.1
Format settings : CABAC / 6 Ref Frames
Format settings, CABAC : Yes
Format settings, ReFrames : 6 frames
Codec ID : V_MPEG4/ISO/AVC
Duration : 51 min 10 s
Bit rate : 1 800 kb/s
Width : 1 024 pixels
Height : 576 pixels
Display aspect ratio : 16:9
Frame rate mode : Constant
Frame rate : 25.000 FPS
Color space : YUV
Chroma subsampling : 4:2:0
Bit depth : 8 bits
Scan type : Progressive
Bits/(Pixel*Frame) : 0.122
Stream size : 644 MiB (88%)
Writing library : x264 core 157 r2935 545de2f
Encoding settings : cabac=1 / ref=6 / deblock=1:0:0 / analyse=0x3:0x113 / me=umh / subme=8 / psy=1 / psy_rd=1.00:0.00 / mixed_ref=1 / me_range=24 / chroma_me=1 / trellis=1 / 8x8dct=1 / cqm=0 / deadzone=21,11 / fast_pskip=1 / chroma_qp_offset=-2 / threads=4 / lookahead_threads=4 / sliced_threads=0 / nr=0 / decimate=1 / interlaced=0 / bluray_compat=0 / stitchable=1 / constrained_intra=0 / bframes=6 / b_pyramid=2 / b_adapt=1 / b_bias=0 / direct=3 / weightb=1 / open_gop=0 / weightp=2 / keyint=250 / keyint_min=25 / scenecut=40 / intra_refresh=0 / rc_lookahead=40 / rc=2pass / mbtree=1 / bitrate=1800 / ratetol=1.0 / qcomp=0.60 / qpmin=0 / qpmax=69 / qpstep=4 / cplxblur=20.0 / qblur=0.5 / ip_ratio=1.40 / aq=1:1.00
Default : Yes
Forced : No
Audio
ID : 2
Format : AC-3
Format/Info : Audio Coding 3
Commercial name : Dolby Digital
Codec ID : A_AC3
Duration : 51 min 9 s
Bit rate mode : Constant
Bit rate : 192 kb/s
Channel(s) : 2 channels
Channel layout : L R
Sampling rate : 48.0 kHz
Frame rate : 31.250 FPS (1536 SPF)
Bit depth : 16 bits
Compression mode : Lossy
Stream size : 70.3 MiB (10%)
Service kind : Complete Main
Default : Yes
Forced : No

Скриншоты

Предыдущие и альтернативные раздачи
[cybertorrent.net].t2837.torrent 
Торрент: Зарегистрирован [ 2019-05-15 16:23 ] · C48ECC2C5C8E577EA35C9331367CCA286EA97D5B

Скачать .torrent

Скачать

37 KB

Статус: проверено
Скачан: 0 раз
Размер: 14,04 GB
terms.php
Показать сообщения:    

Текущее время: 17-Ноя 05:33

Часовой пояс: UTC ± 0



Вы не можете начинать темы
Вы не можете отвечать на сообщения
Вы не можете редактировать свои сообщения
Вы не можете удалять свои сообщения
Вы не можете голосовать в опросах
Вы не можете прикреплять файлы к сообщениям
Вы можете скачивать файлы