Статистика раздачи
Размер:  1,37 GB   |    Зарегистрирован:  8 месяцев 2 дня   |    Скачан:  0 раз

Полного источника не было: Никогда

 
     
 
 

Гость ®

Пол:
Не указан

Время признаний / Le Temps des aveux Страна: Франция, Камбоджа, Бельгия
Жанр: драма, экранизация, реальные события
Год выпуска: 2014
Продолжительность: 01:34:29
Перевод: Профессиональный (многоголосый закадровый)
Субтитры: нет
Оригинальная аудиодорожка: нет
Режиссер: Режис Варнье / Régis Wargnier
В ролях: Рафаэль Персонас, Пхонг Компеак, Оливье Гурме, Тханет Торн, Стив Дрисен, Виболь-Жозеф Сок, Борен Чхитх, Ратхана Сот, Кринг Сок, Жорж Бижо, Руди Куэ, Че Сок, Еарит Пил, Пуч Преаб, Наташа Милошевич, Конг Ней
Описание: Фильм основан на реальных событиях и является экранизацией автобиографической повести Франсуа Бизо «Врата» (фр. Le Portail). Действие фильма разворачивается в годы гражданской войны в Камбодже 1967—1975 гг., когда движение красных кхмеров постепенно захватывает страну. Молодой антрополог Франсуа Бизо (Рафаэль Персонас), будучи зачисленным в ряды Французского института Дальнего Востока, отправляется в Камбоджу. Там ему предстоит принимать участие в реставрации храмового комплекса Ангкор-Ват. Спустя некоторое время Франсуа женится на местной девушке. Позже у семейной пары рождается дочка. Также Бизо удаётся научиться бегло разговаривать на кхмерском языке. Так проходит несколько размеренных лет на чужбине. 1971 год. Спокойная жизнь заканчивается. Страна погружается в хаос гражданской войны между красными кхмерами и войсками генерала Лон Нола, совершившего переворот в стране. Однажды Франсуа вместе с двумя коллегами отправляется в один из храмов, чтобы изучить манускрипты для дальнейшей работы. Святилище оказывается на территории, захваченной красными кхмерами. Группа учёных попадает к ним в плен. Надежды на спасение нет, ведь Бизо обвиняют в шпионаже в пользу ЦРУ. Мужчине грозит расстрел, и единственный шанс спастись и снова вернутся к семье - убедить молодого командира красных кхмеров Дуча (Пхонг Компеак) в своей невиновности...
Доп. информация: Собственный рип. За синхрон спасибо semvlk.
Сэмпл: http://multi-up.com/1223218
Качество видео: HDRip
Исходник: Le.Temps.des.Aveux.2014.FRENCH.1080p.BluRay.x264-FiDO
Формат видео: AVI
Видео: XviD, 720x384 (1.88:1), 24.00 fps, 1878 kbps avg
Аудио: Russian AC3 Dolby Digital, 48 kHz, 2/0 (L,R) ch, 192.00 kbps avg

MediaInfo

General
Complete name : G:\Время признаний_2014\Время.признаний.2014.HDRip.MVO.avi
Format : AVI
Format/Info : Audio Video Interleave
File size : 1.37 GiB
Duration : 1 h 34 min
Overall bit rate : 2 080 kb/s
Writing application : VirtualDubModRus 1.5.10.2 (build 2542/release)
Writing library : VirtualDubMod build 2542/release
Video
ID : 0
Format : MPEG-4 Visual
Format profile : Advanced Simple@L5
Format settings : BVOP1 / Custom Matrix
Format settings, BVOP : 1
Format settings, QPel : No
Format settings, GMC : No warppoints
Format settings, Matrix : Custom
Codec ID : XVID
Codec ID/Hint : XviD
Duration : 1 h 34 min
Bit rate : 1 878 kb/s
Width : 720 pixels
Height : 384 pixels
Display aspect ratio : 1.85:1
Frame rate : 24.000 FPS
Color space : YUV
Chroma subsampling : 4:2:0
Bit depth : 8 bits
Scan type : Progressive
Compression mode : Lossy
Bits/(Pixel*Frame) : 0.283
Stream size : 1.24 GiB (90%)
Writing library : XviD 73
Audio
ID : 1
Format : AC-3
Format/Info : Audio Coding 3
Codec ID : 2000
Duration : 1 h 34 min
Bit rate mode : Constant
Bit rate : 192 kb/s
Channel(s) : 2 channels
Channel positions : Front: L R
Sampling rate : 48.0 kHz
Frame rate : 31.250 FPS (1536 SPF)
Bit depth : 16 bits
Compression mode : Lossy
Stream size : 130 MiB (9%)
Alignment : Split accross interleaves
Interleave, duration : 42 ms (1.00 video frame)
Interleave, preload duration : 500 ms
Service kind : Complete Main

Скриншоты

[cybertorrent.net].t283.torrent 
Торрент: Зарегистрирован [ 2019-03-18 10:04 ] · D7D3543757C07EB188A9EB4EA5265FCF67392D6A

Скачать .torrent

Скачать

14 KB

Статус: проверено
Скачан: 0 раз
Размер: 1,37 GB
terms.php
Показать сообщения:    

Текущее время: 21-Ноя 09:23

Часовой пояс: UTC ± 0



Вы не можете начинать темы
Вы не можете отвечать на сообщения
Вы не можете редактировать свои сообщения
Вы не можете удалять свои сообщения
Вы не можете голосовать в опросах
Вы не можете прикреплять файлы к сообщениям
Вы можете скачивать файлы