Статистика раздачи
Размер:  90 MB   |    Зарегистрирован:  7 месяцев 24 дня   |    Скачан:  0 раз

Полного источника не было: Никогда

 
     
 
 

Гость ®

Пол:
Не указан

Поймай барса Год выпуска: 2010
Страна: Казахстан
Жанр: мультфильм
Продолжительность: 00:05:40
Перевод: Профессиональный (дублированный)-Режиссёр: Рустам Туралиев-Описание: Мультфильм о целеустремлённости и настойчивости, демонстрирующий всю важность этих качеств на примере главного героя.-Качество: DVB [Ел Арна] (эфир 10.02.2019)
Формат: TS
Видео: AVC, 720x576 (16:9) @ 1047x576, 25 fps, ~1915 kbps, 0.185 bit/pixel
Аудио: [RUS] MP2, 48 kHz, 2 ch, 192 kbps

Mediainfo

General
ID : 1 (0x1)
Complete name : H:\Раздачи\Поймай барса (2010) [DVB].ts
Format : MPEG-TS
File size : 90.0 MiB
Duration : 5 min 40 s
Overall bit rate mode : Variable
Overall bit rate : 2 218 kb/s
Video
ID : 68 (0x44)
Menu ID : 1 (0x1)
Format : AVC
Format/Info : Advanced Video Codec
Format profile : High@L3
Format settings : CABAC / 3 Ref Frames
Format settings, CABAC : Yes
Format settings, ReFrames : 3 frames
Codec ID : 27
Duration : 5 min 40 s
Bit rate : 1 915 kb/s
Width : 720 pixels
Height : 576 pixels
Display aspect ratio : 16:9
Frame rate : 25.000 FPS
Standard : Component
Color space : YUV
Chroma subsampling : 4:2:0
Bit depth : 8 bits
Scan type : Interlaced
Scan type, store method : Separated fields
Scan order : Top Field First
Bits/(Pixel*Frame) : 0.185
Stream size : 77.6 MiB (86%)
Color range : Limited
Color primaries : BT.601 PAL
Transfer characteristics : BT.470 System B/G
Matrix coefficients : BT.470 System B/G
Audio
ID : 69 (0x45)
Menu ID : 1 (0x1)
Format : MPEG Audio
Format version : Version 1
Format profile : Layer 2
Codec ID : 3
Duration : 5 min 40 s
Bit rate mode : Constant
Bit rate : 192 kb/s
Channel(s) : 2 channels
Sampling rate : 48.0 kHz
Frame rate : 41.667 FPS (1152 SPF)
Compression mode : Lossy
Delay relative to video : -80 ms
Stream size : 7.79 MiB (9%)
Language : English

Скриншоты

[cybertorrent.net].t282.torrent 
Торрент: Зарегистрирован [ 2019-03-18 10:04 ] · 030F9EFF1AB1770E4C1CC7E4EB7E9FA9E9A921BA

Скачать .torrent

Скачать

15 KB

Статус: проверено
Скачан: 0 раз
Размер: 90 MB
terms.php
Показать сообщения:    

Текущее время: 12-Ноя 06:24

Часовой пояс: UTC ± 0



Вы не можете начинать темы
Вы не можете отвечать на сообщения
Вы не можете редактировать свои сообщения
Вы не можете удалять свои сообщения
Вы не можете голосовать в опросах
Вы не можете прикреплять файлы к сообщениям
Вы можете скачивать файлы