Статистика раздачи
Размер:  1,47 GB   |    Зарегистрирован:  6 месяцев 27 дней   |    Скачан:  0 раз

Полного источника не было: Никогда

 
     
 
 

Гость ®

Пол:
Не указан

По данным уголовного розыска
Жанр: детектив, военный
Год выпуска: 1979
Продолжительность: 01:09:29
Режиссёр: Валерий Михайловский
В ролях: Леонид Неведомский, Александр Соловьев, Алексей Эйбоженко, Геннадий Крынкин, Алексей Михайлов, Георгий Штиль, Николай Скоробогатов, Николай Буров, Юрий Назаров, Александр Хочинский, Виктор Проскурин, Владимир Кенигсон, Елена Шанина
Описание: в начале Великой Отечественной войны была перехвачена автомашина с грузом минского ювелирторга. Все сопровождавшие груз были убиты. Абвер и СД собирались начать операцию по дезорганизации нашего тыла а для этого под именем одного из сотрудников ювелирторга был внедрен офицер Абвера...
Доп. информация: запись потока *.ts со спутника EUTELSAT 36A/B, 36° в.д., удаление рекламы программой VideoReDo.
Качество видео: DVB
Формат видео: MKV
Видео: MPEG2 Video, 720(768)x576 (4:3), 25,000 кадров/сек, 2772 Кбит/сек
Аудио: MPEG Audio, 48,0 КГц, 192 Кбит/сек, 2 канала

MediaInfo

Общее
Уникальный идентификатор : 75657263333987394126202737651898441518 (0x38EB0F13D7D569DB49D9352E4478DF2E)
Полное имя : D:\Torrent\ПО ДАННЫМ УГОЛОВНОГО РОЗЫСКА (Дом Кино).mkv
Формат : Matroska
Версия формата : Version 2
Размер файла : 1,47 Гбайт
Продолжительность : 1 ч. 9 м.
Режим общего битрейта : Переменный
Общий поток : 3024 Кбит/сек
Программа кодирования : Lavf52.64.2
Библиотека кодирования : Lavf52.64.2
Видео
Идентификатор : 1
Формат : MPEG Video
Версия формата : Version 2
Профиль формата : Main@Main
Параметр BVOP формата : Да
Параметр матрицы формата : Выборочная
Параметр GOP формата : M=3, N=12
Структура изображения : Frame
Идентификатор кодека : V_MPEG2
Идентификатор кодека/Информация : MPEG 1 or 2 Video
Продолжительность : 1 ч. 9 м.
Вид битрейта : Переменный
Битрейт : 2772 Кбит/сек
Максимальный битрейт : 5000 Кбит/сек
Ширина : 720 пикселей
Высота : 576 пикселей
Соотношение сторон : 4:3
Соотношение сторон в оригинале : 4:3
Режим частоты кадров : Постоянный
Частота кадров : 25,000 кадров/сек
Стандарт вещания : PAL
Цветовое пространство : YUV
Субдискретизация насыщенности : 4:2:0
Битовая глубина : 8 бит
Тип развёртки : Чересстрочная
Порядок развёртки : Верхнее поле первое
Метод сжатия : С потерями
Бит/(Пиксели*Кадры) : 0.267
Размер потока : 1,35 Гбайт (92%)
Default : Да
Forced : Нет
Аудио
Идентификатор : 2
Формат : MPEG Audio
Версия формата : Version 1
Профиль формата : Layer 2
Идентификатор кодека : A_MPEG/L2
Идентификатор кодека/Подсказка : MP2
Продолжительность : 1 ч. 9 м.
Вид битрейта : Постоянный
Битрейт : 192 Кбит/сек
Каналы : 2 канала
Частота : 48,0 КГц
Метод сжатия : С потерями
Размер потока : 95,4 Мбайт (6%)
Язык : English
Default : Да
Forced : Нет
[cybertorrent.net].t2819.torrent 
Торрент: Зарегистрирован [ 2019-05-15 16:23 ] · 5A21FEF4AACA4D378261B1420B08FD53B0964643

Скачать .torrent

Скачать

15 KB

Статус: проверено
Скачан: 0 раз
Размер: 1,47 GB
terms.php
Показать сообщения:    

Текущее время: 12-Дек 04:59

Часовой пояс: UTC ± 0



Вы не можете начинать темы
Вы не можете отвечать на сообщения
Вы не можете редактировать свои сообщения
Вы не можете удалять свои сообщения
Вы не можете голосовать в опросах
Вы не можете прикреплять файлы к сообщениям
Вы можете скачивать файлы