Статистика раздачи
Размер:  9,83 GB   |    Зарегистрирован:  6 месяцев 2 дня   |    Скачан:  0 раз
Сидов:  13  [  0 KB/s  ]   Личеров:  2  [  0 KB/s  ]  
 
     
 
 

Гость ®

Пол:
Не указан

Майор полиции
Год выпуска: 2013
Производство: Всемирные Русские Студии, Кинокомпания "Барабан"
Жанр: криминальный фильм, мелодрама
Продолжительность: 16 x ~ 00:45:00
Субтитры: Нет
Режиссёр: Анатолий Артамонов
В ролях: Андрей Ильин, Дмитрий Блохин, Анна Банщикова, Дмитрий Поднозов, Лариса Саванкова, Арсений Витязев, Пётр Касатьев, Ольга Калмыкова, Елизавета Кутузова, Юрий Ицков, Инна Степанова, Александр Ильин, Ольга Онищенко, Игорь Гоппиков, Александр Ильин (младший), Валерий Кухарешин, Леонид Тимцуник, Сергей Цепов, Сергей Рублёв, Наталья Высочанская, Анна Пескова, Вера Тран, Игорь Иванов, Олег Жданов, Кирилл Жандаров, Валерий Дьяченко, Татьяна Иванова, Александр Мартынов (VII), Яков Петров, Аркадий Коваль, Анна Геллер, Борис Войцеховский, Роберт Вааб, Светлана Щедрина, Владимир Богданов, Вадим Франчук, Александр Васильев, Иван Дубровский, Светлана Смирнова, Олег Луконин, Надежда Жарикова, Светлана Котова, Светлана Гайтан, Анна Королёва, Анатолий Горин, Наталья Эсхи, Гелена Ивлиева, Александр Кабанов, Сергей Лосев, Юлия Зоркина, Виктор Хоркин, Надежда Некрасова, Елизавета Белоусова, Константин Воробьёв, Яков Шамшин, Ирина Соколова
Описание: Честный и принципиальный майор милиции Андрей Камышин из провинциального городка Тишинск кому-то очень сильно мешал. Ему «пришили» дело, посадили на три года, а потом, для верности, упрятали в психиатрическую больницу. Спустя время приговор был пересмотрен и отменен, а Андрей Камышин реабилитирован. За годы принудительной изоляции майор практически утратил связь с семьей. Ему предстоит начать жизнь сначала, но легко ли это, когда тебе сорок пять? После долгих сомнений Камышин возвращается на службу в полицию и соглашается стать заместителем начальника УВД. Он собирает команду и ставит перед собой чёткую цель - вытащить на свет корни криминала, опутавшего город.
Реклама: Нет
Сэмпл: http://multi-up.com/1230762
Качество: WEBRip-AVC
Формат: MKV
Видео кодек: H.264
Аудио кодек: AC3
Видео: MPEG-4 (AVC), 1024x576, 25 fps, ~ 1800 kbps, ~ 0.12 bit/pixel
Аудио: AC3, 2 ch, 192 kbps, 48.0 kHz

MI

General
Unique ID : 235892657927052647001123916230686578998 (0xB17745FAAD5D3A60848BF07819BE9936)
Complete name : Майор полиции (01 сер.).mkv
Format : Matroska
Format version : Version 2
File size : 626 MiB
Duration : 43 min 55 s
Overall bit rate : 1 993 kb/s
Encoded date : UTC 2019-03-10 17:22:24
Writing application : mkvmerge v7.8.0 ('River Man') 32bit built on Apr 3 2015 12:11:22
Writing library : libebml v1.3.1 + libmatroska v1.4.2
Video
ID : 1
Format : AVC
Format/Info : Advanced Video Codec
Format profile : High@L3.1
Format settings : CABAC / 6 Ref Frames
Format settings, CABAC : Yes
Format settings, ReFrames : 6 frames
Codec ID : V_MPEG4/ISO/AVC
Duration : 43 min 55 s
Bit rate : 1 800 kb/s
Width : 1 024 pixels
Height : 576 pixels
Display aspect ratio : 16:9
Frame rate mode : Constant
Frame rate : 25.000 FPS
Color space : YUV
Chroma subsampling : 4:2:0
Bit depth : 8 bits
Scan type : Progressive
Bits/(Pixel*Frame) : 0.122
Stream size : 553 MiB (88%)
Writing library : x264 core 157 r2935 545de2f
Encoding settings : cabac=1 / ref=6 / deblock=1:0:0 / analyse=0x3:0x113 / me=umh / subme=8 / psy=1 / psy_rd=1.00:0.00 / mixed_ref=1 / me_range=24 / chroma_me=1 / trellis=1 / 8x8dct=1 / cqm=0 / deadzone=21,11 / fast_pskip=1 / chroma_qp_offset=-2 / threads=4 / lookahead_threads=4 / sliced_threads=0 / nr=0 / decimate=1 / interlaced=0 / bluray_compat=0 / stitchable=1 / constrained_intra=0 / bframes=6 / b_pyramid=2 / b_adapt=1 / b_bias=0 / direct=3 / weightb=1 / open_gop=0 / weightp=2 / keyint=250 / keyint_min=25 / scenecut=40 / intra_refresh=0 / rc_lookahead=40 / rc=2pass / mbtree=1 / bitrate=1800 / ratetol=1.0 / qcomp=0.60 / qpmin=0 / qpmax=69 / qpstep=4 / cplxblur=20.0 / qblur=0.5 / ip_ratio=1.40 / aq=1:1.00
Default : Yes
Forced : No
Audio
ID : 2
Format : AC-3
Format/Info : Audio Coding 3
Commercial name : Dolby Digital
Codec ID : A_AC3
Duration : 43 min 55 s
Bit rate mode : Constant
Bit rate : 192 kb/s
Channel(s) : 2 channels
Channel layout : L R
Sampling rate : 48.0 kHz
Frame rate : 31.250 FPS (1536 SPF)
Bit depth : 16 bits
Compression mode : Lossy
Stream size : 60.3 MiB (10%)
Service kind : Complete Main
Default : Yes
Forced : No

Скриншоты

Предыдущие и альтернативные раздачи
[cybertorrent.net].t2802.torrent 
Торрент: Зарегистрирован [ 2019-05-14 16:00 ] · 0463F29EFE58BF6E28288F7BCCE856172DFF31CE

Скачать .torrent

Скачать

26 KB

Статус: проверено
Скачан: 0 раз
Размер: 9,83 GB
terms.php
Показать сообщения:    

Текущее время: 17-Ноя 15:40

Часовой пояс: UTC ± 0



Вы не можете начинать темы
Вы не можете отвечать на сообщения
Вы не можете редактировать свои сообщения
Вы не можете удалять свои сообщения
Вы не можете голосовать в опросах
Вы не можете прикреплять файлы к сообщениям
Вы можете скачивать файлы