Статистика раздачи
Размер:  1,4 GB   |    Зарегистрирован:  6 месяцев 25 дней   |    Скачан:  0 раз

Полного источника не было: Никогда

 
     
 
 

serzh ®

Пол:
Не указан
Стаж:
8 месяцев 27 дней
Сообщений:
384

Жажда смерти 3 / Пожелание смерти 3 / Death Wish 3
«He's back in New York bringing justice to the streets...»
Страна: США, Израиль, Великобритания
Жанр: Боевик
Год выпуска: 1985
Продолжительность: 01:30:35
Перевод: Авторский (одноголосый закадровый) Андрей Гаврилов (самый ранний)
Субтитры: нет
Оригинальная аудиодорожка: английский
Режиссер: Майкл Уиннер / Michael Winner
В ролях: Чарльз Бронсон, Дебора Раффин, Эд Лотер, Мартин Болсам, Гэвэн О’Херлихи, Кирк
Тейлор, Алекс Уинтер, Тони Спиридакис, Рикко Росс, Тони Бриттс
Описание: Молодёжная банда крушит квартиру и избивает до смерти старика, посмевшего им
сопротивляться. Его приехавший друг Пол Керси успевает уловить предсмертный вздох. Полиция
арестовывает его по обвинению в убийстве. В камере Пол вступает в конфликт с местным
авторитетом, который с этого момента становится его смертельным врагом. Полиция узнаёт в
приезжем известного нью-йоркского «ночного мстителя», и инспектор, отпуская его на свободу,
просит помощи в наведении порядка в квартале. Пол занимает квартиру погибшего друга и
начинает войну с бандой.
Доп. информация: Дорожка с А. Гавриловым синхронизирована и наложена ale_x2008 при помощи Adobe Audition, Sony Vegas и VirtualDubMod.
За оцифрованную с VHS дорожку благодарим - Glowamy

Релиз
Сэмпл: https://yadi.sk/i/ClLj9U8IzQcfdQ
Качество видео: BDRip
Формат видео: AVI
Видео: XviD build 65, 704x384 (1.83:1), 23.976 fps, 1807 kbps avg, 0.28 bit/pixel
Аудио: AC3 Dolby Digital, 48000Hz 2/0 (L,R) ch (mono), 192 kbps avg
Аудио 2: AC3 Dolby Digital, 48000Hz 2/0 (L,R) ch, 192 kbps avg Eng

MediaInfo

Жажда смерти 3 - Death Wish 3 (by ale_X2008).avi
Format : AVI
Format/Info : Audio Video Interleave
File size : 1.40 GiB
Duration : 1 h 30 min
Overall bit rate : 2 205 kb/s
Movie name : Жажда смерти 3 / Death Wish 3 (1985) BDRip
Director : by ale_x2008
Writing application : VirtualDubMod 1.5.10.2 (build 2540/release)
Copyright : Edich2
Comment : Rutracker.org
Video
ID : 0
Format : MPEG-4 Visual
Format profile : Advanced Simple@L5
Format settings : BVOP1 / Custom Matrix
Format settings, BVOP : 1
Format settings, QPel : No
Format settings, GMC : No warppoints
Format settings, Matrix : Custom
Codec ID : XVID
Codec ID/Hint : XviD
Duration : 1 h 30 min
Bit rate : 1 807 kb/s
Width : 704 pixels
Height : 384 pixels
Display aspect ratio : 1.85:1
Frame rate : 23.976 (24000/1001) FPS
Color space : YUV
Chroma subsampling : 4:2:0
Bit depth : 8 bits
Scan type : Progressive
Compression mode : Lossy
Bits/(Pixel*Frame) : 0.279
Stream size : 1.14 GiB (82%)
Writing library : XviD 65
Audio #1
ID : 1
Format : AC-3
Format/Info : Audio Coding 3
Codec ID : 2000
Duration : 1 h 30 min
Bit rate mode : Constant
Bit rate : 192 kb/s
Channel(s) : 2 channels
Channel positions : Front: L R
Sampling rate : 48.0 kHz
Frame rate : 31.250 FPS (1536 SPF)
Bit depth : 16 bits
Compression mode : Lossy
Stream size : 124 MiB (9%)
Alignment : Split accross interleaves
Interleave, duration : 42 ms (1.00 video frame)
Interleave, preload duratio : 500 ms
Service kind : Complete Main
Audio #2
ID : 2
Format : AC-3
Format/Info : Audio Coding 3
Codec ID : 2000
Duration : 1 h 30 min
Bit rate mode : Constant
Bit rate : 192 kb/s
Channel(s) : 2 channels
Channel positions : Front: L R
Sampling rate : 48.0 kHz
Frame rate : 31.250 FPS (1536 SPF)
Bit depth : 16 bits
Compression mode : Lossy
Stream size : 124 MiB (9%)
Alignment : Split accross interleaves
Interleave, duration : 42 ms (1.00 video frame)
Interleave, preload duratio : 500 ms
Service kind : Complete Main

Скриншоты


[cybertorrent.net].t2787.torrent 
Торрент: Зарегистрирован [ 2019-05-14 16:00 ] · 2F9F6A8F81933D90ACDD5A7D5253D9ABB13CDFCA

Скачать .torrent

Скачать

14 KB

Статус: проверено
Скачан: 0 раз
Размер: 1,4 GB
terms.php
Профиль [ЛС]
Показать сообщения:    

Текущее время: 09-Дек 06:11

Часовой пояс: UTC ± 0



Вы не можете начинать темы
Вы не можете отвечать на сообщения
Вы не можете редактировать свои сообщения
Вы не можете удалять свои сообщения
Вы не можете голосовать в опросах
Вы не можете прикреплять файлы к сообщениям
Вы можете скачивать файлы