Статистика раздачи
Размер:  1,37 GB   |    Зарегистрирован:  7 месяцев   |    Скачан:  0 раз

Полного источника не было: Никогда

 
     
 
 

Гость ®

Пол:
Не указан

Сладкий сентябрь / Süßer September / Süsser September / Susser September
Страна: Германия
Жанр: драма
Год выпуска: 2015
Продолжительность: 01:25:58
Перевод: Профессиональный (многоголосый закадровый) FOX
Субтитры: нет
Оригинальная аудиодорожка: немецкий
Режиссер: Флориан Фрошмайер / Florian Froschmayer
В ролях: Каролина Петерс
Мизель Матичевич
Регула Граувилер
Самуэль Шнайдер
Томас Лимпинзель
Даниэль Рёснер
Кристиан Виттман
Пиа Мечлер
Надина Вриц
Габор Бидерманн
Описание:
Влюбленность - это не всегда страстные вздохи с заламыванием рук, все может быть гораздо более элегантно - с галантными беседами во французском стиле с сигаретой в руках и искрометным юмором. Если бы Ребекка не была столь озабочена тем, что подумают о ее поведении окружающие, и чего ей следует избегать, она бы поняла, что уже по уши влюбилась в Бруно - совершенно в духе французского кино.
И если бы Бруно не находился постоянно в несколько угнетенном состоянии, он бы понял, что он просто не может жить без Ребекки....В принципе, это обычная история для бывших любовников, текущих бойфрендов, для молодых жен, отдалившихся от своих прежних подружек, для мятежного сына, стремящегося вырваться из под опеки своего отца, и для Ребекки с Бруно и их друзей, которые убеждены, что мужчины и женщины не могут быть просто друзьями - но все равно притворяются, что могут...
Сэмпл: http://multi-up.com/1232013
Качество видео: HDTVRip
Формат видео: AVI
Видео: MPEG4, XviD, 720x400 (16:9), 25.000 fps, 1 886 Kbps (0.262 bit/pixel)
Аудио: AC-3, 48.0 KHz, 2 ch, 192 Kbps, CBR - русский
Аудио 2: AC-3, 48.0 KHz, 2 ch, 192 Kbps, CBR - немецкий

MediaInfo

Общее
Полное имя : F:\МОИ РАЗДАЧИ\Сладкий сентябрь.avi
Формат : AVI
Формат/Информация : Audio Video Interleave
Размер файла : 1,37 Гбайт
Продолжительность : 1 ч. 25 м.
Общий поток : 2285 Кбит/сек
Название фильма : Сладкий сентябрь / Susser September (2015)
Программа кодирования : VirtualDubMod 1.5.10.2 (build 2540/release)
Библиотека кодирования : VirtualDubMod build 2540/release
Авторское право : miha2154
Видео
Идентификатор : 0
Формат : MPEG-4 Visual
Профиль формата : Advanced Simple@L5
Настройки формата : BVOP1 / Custom Matrix
Параметр BVOP формата : 1
Параметр QPel формата : Нет
Параметр GMC формата : Без точки перехода
Параметр матрицы формата : Выборочная
Идентификатор кодека : XVID
Идентификатор кодека/Подсказка : XviD
Продолжительность : 1 ч. 25 м.
Битрейт : 1886 Кбит/сек
Ширина : 720 пикселей
Высота : 400 пикселей
Соотношение сторон : 16:9
Частота кадров : 25,000 кадров/сек
Цветовое пространство : YUV
Субдискретизация насыщенности : 4:2:0
Битовая глубина : 8 бит
Тип развёртки : Прогрессивная
Метод сжатия : С потерями
Бит/(Пиксели*Кадры) : 0.262
Размер потока : 1,13 Гбайт (83%)
Библиотека кодирования : XviD 65
Аудио #1
Идентификатор : 1
Формат : AC-3
Формат/Информация : Audio Coding 3
Коммерческое название : Dolby Digital
Идентификатор кодека : 2000
Продолжительность : 1 ч. 25 м.
Вид битрейта : Постоянный
Битрейт : 192 Кбит/сек
Каналы : 2 канала
Channel layout : L R
Частота : 48,0 КГц
Частота кадров : 31,250 кадров/сек (1536 SPF)
Битовая глубина : 16 бит
Метод сжатия : С потерями
Размер потока : 118 Мбайт (8%)
Выравнивание : Разделение по промежуткам
Продолжительность промежутка : 40 мс. (1,00 видеокадр)
Время предзагрузки промежутка : 500 мс.
Заголовок : Профессиональный (многоголосый, закадровый) FOX
ServiceKind/String : Complete Main
Аудио #2
Идентификатор : 2
Формат : AC-3
Формат/Информация : Audio Coding 3
Коммерческое название : Dolby Digital
Идентификатор кодека : 2000
Продолжительность : 1 ч. 25 м.
Вид битрейта : Постоянный
Битрейт : 192 Кбит/сек
Каналы : 2 канала
Channel layout : L R
Частота : 48,0 КГц
Частота кадров : 31,250 кадров/сек (1536 SPF)
Битовая глубина : 16 бит
Метод сжатия : С потерями
Размер потока : 118 Мбайт (8%)
Выравнивание : Разделение по промежуткам
Продолжительность промежутка : 40 мс. (1,00 видеокадр)
Время предзагрузки промежутка : 500 мс.
Заголовок : Немецкий
ServiceKind/String : Complete Main

Скриншот c названием фильма

Скриншоты


[cybertorrent.net].t2778.torrent 
Торрент: Зарегистрирован [ 2019-05-13 15:31 ] · CACF6ACB8134D1B08A7DFBA22011EECCB078FFFE

Скачать .torrent

Скачать

14 KB

Статус: проверено
Скачан: 0 раз
Размер: 1,37 GB
terms.php
Показать сообщения:    

Текущее время: 14-Дек 01:35

Часовой пояс: UTC ± 0



Вы не можете начинать темы
Вы не можете отвечать на сообщения
Вы не можете редактировать свои сообщения
Вы не можете удалять свои сообщения
Вы не можете голосовать в опросах
Вы не можете прикреплять файлы к сообщениям
Вы можете скачивать файлы