Статистика раздачи
Размер:  27,47 GB   |    Зарегистрирован:  6 месяцев 2 дня   |    Скачан:  0 раз

Полного источника не было: Никогда

 
     
 
 

Гость ®

Пол:
Не указан

Иное
Год выпуска: 2007
Производство: Россия
Жанр: Мистика
Продолжительность: 12 х ~ 00:45:00
Субтитры: нет
Режиссёр: Дмитрий Онищенко
В ролях: Наталья Благих,Михаил Крылов,Анна Яновская,Эдуард Чекмазов,Александр Воробьев,Татьяна Лаврова,Екатерина Стулова,Сергей Перелыгин, Денис Никифоров,Анна Арланова,Сергей Астахов,Дмитрий Петрунь,Юлия Чебакова,Дмитрий Швадченко,Олег Бойко,Александр Пашков
Описание: 12-серийная мистическая лента состоит из несвязанных между собой историй:даже актеры в каждой серии разные.
Создатели проекта считают,что зритель по достоинству оценит их детище. Жанр сериала ужасов достаточно нов для российского кинематографа,к тому же разделение на самостоятельные истории создает своеобразную динамику.Напомним,что этот прием довольно популярен-он с успехом использовался в знаменитых «Байках из склепа».
Доп. информация: По 3 серии на диске. Доп. Материалы: Интервью с создателями и исполнителями, фотогаллерея.
Реклама: Нет
Сэмпл: http://multi-up.com/1232012
Качество: DVD9
Формат: DVD-Video
Видео кодек: MPEG2
Аудио кодек: AC3
Видео: MPEG2 Video 720x576 (4:3) 25fps 6632 kb/s 0.640
Аудио: Dolby AC3 48000Hz stereo 192kbps

MI

General
Complete name : H:\Иное DVD9\INOE1\VIDEO_TS\VTS_01_4.VOB
Format : MPEG-PS
File size : 1 024 MiB
Duration : 20 min 33 s
Overall bit rate mode : Variable
Overall bit rate : 6 963 kb/s
Video
ID : 224 (0xE0)
Format : MPEG Video
Format version : Version 2
Format profile : Main@Main
Format settings : CustomMatrix / BVOP
Format settings, BVOP : Yes
Format settings, Matrix : Custom
Format settings, GOP : M=3, N=15
Format settings, picture struc : Frame
Duration : 20 min 33 s
Bit rate mode : Variable
Bit rate : 6 632 kb/s
Maximum bit rate : 8 500 kb/s
Width : 720 pixels
Height : 576 pixels
Display aspect ratio : 4:3
Frame rate : 25.000 FPS
Standard : PAL
Color space : YUV
Chroma subsampling : 4:2:0
Bit depth : 8 bits
Scan type : Interlaced
Scan order : Top Field First
Compression mode : Lossy
Bits/(Pixel*Frame) : 0.640
Time code of first frame : 00:06:41:04
Time code source : Group of pictures header
GOP, Open/Closed : Open
Stream size : 975 MiB (95%)
Audio
ID : 189 (0xBD)-128 (0x80)
Format : AC-3
Format/Info : Audio Coding 3
Format settings, Endianness : Big
Muxing mode : DVD-Video
Duration : 20 min 33 s
Bit rate mode : Constant
Bit rate : 192 kb/s
Channel(s) : 2 channels
Channel positions : Front: L R
Sampling rate : 48.0 kHz
Frame rate : 31.250 FPS (1536 SPF)
Bit depth : 16 bits
Compression mode : Lossy
Delay relative to video : -216 ms
Stream size : 28.2 MiB (3%)
Service kind : Complete Main
Menu

DVDInfo

Title: INOE1
Size: 7.15 Gb ( 7 492 318,00 KBytes ) - DVD-9
Enabled regions: 1, 2, 3, 4, 5, 6, 7, 8
VTS_01 :
Play Length: 00:00:26+00:46:52+00:45:40+00:44:46+00:08:22
Video: PAL 4:3 (720x576) VBR
Audio:
Russian (Dolby AC3, 2 ch)
* Menus Information *
VIDEO_TS Menu
Video:
NTSC 4:3 (720x480) VBR
Auto Pan&Scan, Auto Letterboxed
Language Unit :
VTS_01 Menu
Video:
PAL 4:3 (720x576) VBR
Audio:
Not specified (Dolby AC3, 2 ch)
Russian Language Unit :
Root Menu
Chapter (PTT) Menu

Скриншоты

Предыдущие и альтернативные раздачи
[cybertorrent.net].t2777.torrent 
Торрент: Зарегистрирован [ 2019-05-13 15:31 ] · 2A70E77BACAA58952E5477B09A3A64D3CDDC25C2

Скачать .torrent

Скачать

72 KB

Статус: проверено
Скачан: 0 раз
Размер: 27,47 GB
terms.php
Показать сообщения:    

Текущее время: 15-Ноя 20:54

Часовой пояс: UTC ± 0



Вы не можете начинать темы
Вы не можете отвечать на сообщения
Вы не можете редактировать свои сообщения
Вы не можете удалять свои сообщения
Вы не можете голосовать в опросах
Вы не можете прикреплять файлы к сообщениям
Вы можете скачивать файлы