Статистика раздачи
Размер:  37,1 GB   |    Зарегистрирован:  6 месяцев 2 дня   |    Скачан:  0 раз
Сидов:  6  [  0 KB/s  ]   Личеров:  1  [  0 KB/s  ]  
 
     
 
 

Гость ®

Пол:
Не указан

Убойная сила
Год выпуска: 2000-2005
Производство: ОРТ, студия "Момент"; Урсус-фильм по заказу ОРТ; Киностудия "СЛОВО" по заказу Первого канала
Жанр: детектив, криминал, комедия
Продолжительность: 57 x ~ 00:50:00
Субтитры: Нет
Режиссёр: Александр Рогожкин, Виктор Бутурлин, Евгений Татарский, Виктор Сергеев, Вячеслав Сорокин, Александр Бурцев, Евгений Аксёнов, Родион Нахапетов, Сергей Снежкин, Евгений Аксёнов, Искандер Хамраев, Вячеслав Никифоров, Андрей Прошкин, Сергей Осипьян, Михаил Брашинский, Дмитрий Иосифов, Ульяна Шилкина, Андрес Пуустусмаа, Александр Карпиловский, Вадим Островский, Антон Борматов
В ролях: Сергей Селин, Константин Хабенский, Андрей Федорцов, Алексей Нилов, Александр Половцев, Михаил Трухин, Сергей Кошонин, Евгений Ганелин, Вилле Хаапасало, Николай Лавров, Сергей Мурзин, Борис Клюев, Евгений Леонов-Гладышев, Андрей Ургант, Виктор Бычков, Елена Симонова, Николай Судник, Георгий Штиль, Николай Лосев (II), Марина Макарова, Игорь Лифанов, Людмила Курепова, Виктор Костецкий, Игорь Добряков, Василий Чернышев, Артур Харитоненко, Анатолий Горин, Валентин Корнезо, Анатолий Сливников, Петр Лимин, Роман Шумилов, Герман Орлов, Станислав Садальский, Олег Иванов (III), Людмила Шевель, Александр Новиков (III), Михаил Трясоруков, Юлия Деллос, Станислав Мухин, Елена Соловьева, Николай Дик, Александр Лушин (II), Дмитрий Гоголин, Полина Бахаревская, Кирилл Лавров, Юрий Гальцев, Владимир Труханов, Эрнст Романов, Александр Солоненко
Описание:
В центре сюжета оперативные сотрудники районного отдела милиции и убойного отдела главка в Санкт-Петербурге. Главные герои сериала Игорь Плахов и Василий Рогов сотрудники милиции, их служба связана с раскрытием как бытовых преступлений, так и борьбой с организованной преступностью. Работая за копеечную зарплату и рискуя жизнью, герои исполняют свой долг...

О раздаче

Серии в ней (особенно это касается 4-6 сезонов) расположены в более правильном порядке по сравнению с другими раздачами и разными Киносайтами и Википедиями. Проверено лично, и если у кого-то будут вопросы, могу всё популярно разъяснить.
Серии "Утренник для взрослых", "Принцип вины", "Подземка" и "Лазурный берег" выложены в полной (неурезанной как при телепоказе) версии.
Трёхсерийного варианта "Лазурного берега" в DVD-исходниках я нигде не нашёл, поэтому в раздаче выложен WebRip с онлайн-кинотетра.
Пять последних серий шестого сезона – SatRip с телеканала Дом Кино, трансляции 2016 года. Как мне кажется, это был последний качественный показ сериала по ТВ (с хорошей, необрезанной под 16:9 картинкой, без купюр, обрезанных титров, запикиваний и всплывающих надписей).
Реклама: Нет
Все раздачи сериала: Убойная сила
Сэмпл: http://multi-up.com/1230766
Качество: DVDRip, WEBRip, SATRip
Формат: AVI
Видео кодек: XviD
Аудио кодек: AC3
Видео: XviD, ~ 688x416, ~1600 kbps, ~0.22 bit/pixel
Аудио: AC3, 48.0 kHz, 2 ch, 192 Kbps

MI

General
Complete name : 1. Служебное соответствие.avi
Format : AVI
Format/Info : Audio Video Interleave
File size : 703 MiB
Duration : 54 min 39 s
Overall bit rate : 1 800 kb/s
Writing application : VirtualDubMod 1.5.10.3 | www.virtualdub-fr.org || (build 2550/release)
Writing library : VirtualDubMod build 2550/release
Video
ID : 0
Format : MPEG-4 Visual
Format profile : Advanced Simple@L5
Format settings : BVOP2
Format settings, BVOP : 2
Format settings, QPel : No
Format settings, GMC : No warppoints
Format settings, Matrix : Default (H.263)
Codec ID : XVID
Codec ID/Hint : XviD
Duration : 54 min 39 s
Bit rate : 1 598 kb/s
Width : 688 pixels
Height : 416 pixels
Display aspect ratio : 5:3
Frame rate : 25.000 FPS
Color space : YUV
Chroma subsampling : 4:2:0
Bit depth : 8 bits
Scan type : Progressive
Compression mode : Lossy
Bits/(Pixel*Frame) : 0.223
Stream size : 625 MiB (89%)
Writing library : XviD 73
Audio
ID : 1
Format : AC-3
Format/Info : Audio Coding 3
Commercial name : Dolby Digital
Codec ID : 2000
Duration : 54 min 39 s
Bit rate mode : Constant
Bit rate : 192 kb/s
Channel(s) : 2 channels
Channel layout : L R
Sampling rate : 48.0 kHz
Frame rate : 31.250 FPS (1536 SPF)
Bit depth : 16 bits
Compression mode : Lossy
Stream size : 75.1 MiB (11%)
Alignment : Split accross interleaves
Interleave, duration : 40 ms (1.00 video frame)
Interleave, preload duratio : 500 ms
Service kind : Complete Main

Скриншоты

Убойная сила-1

Убойная сила-2

Убойная сила-3

Убойная сила-4

Убойная сила-5

Убойная сила-6

[cybertorrent.net].t2774.torrent 
Торрент: Зарегистрирован [ 2019-05-13 15:31 ] · C2D3C48DEA56C50D1CFA3D385A4C3B7F8C9094DA

Скачать .torrent

Скачать

100 KB

Статус: проверено
Скачан: 0 раз
Размер: 37,1 GB
terms.php
Показать сообщения:    

Текущее время: 15-Ноя 20:51

Часовой пояс: UTC ± 0



Вы не можете начинать темы
Вы не можете отвечать на сообщения
Вы не можете редактировать свои сообщения
Вы не можете удалять свои сообщения
Вы не можете голосовать в опросах
Вы не можете прикреплять файлы к сообщениям
Вы можете скачивать файлы