Статистика раздачи
Размер:  1,46 GB   |    Зарегистрирован:  1 год 2 месяца   |    Скачан:  0 раз
DL-List: Нет

Полного источника не было: Никогда

 
     
 
 

Гость ®

Пол:
Не указан

-Прыжок Богомола-- -Год выпуска: 2019
Производство: Кинокомпания «ГРИФОН», Кинокомпания «Калейдоскоп фильм»
Жанр: военный, мелодрама, шпионский
Продолжительность: ~00:44:00
Субтитры: Нет-Режиссёр: Владимир Балкашинов-В ролях: Павел Чинарёв, Татьяна Лялина, Александра Никифорова, Яков Шамшин, Сергей Степанченко, Виктор Супрун, Анатолий Лобоцкий, Дмитрий Брауэр, Владимир Капустин, Иван Лапин, Сергей Сосновский, Евгений Шириков, Владимир Терещенко, Константин Новиков, Алексей Ошурков, Александр Катин , Дмитрий Родонов, Илья Семёнов, Виктор Немец, Роман Синицын, Игорь Поселенов, Вячеслав Морозов, Илья Беляев, Александр Никольский-Описание: 1942 год. Управление особых отделов НКВД начинает операцию по выявлению агентов, заброшенных на советскую территорию из разведцентра абвера. По заданию командования офицер НКВД разведчик Константин Богомолов под маской уголовника проникает в разведцентр и становится там лучшим курсантом.Постоянные проверки и провокации зачастую ставят Богомолова на грань провала. И вот, когда успех уже близок, и личные дела шпионов уже почти в руках, гитлеровцы забрасывают Богомолова, уже как своего агента, на советскую территорию.Руководство НКДВ считает, что Богомолов перевербован, и арестовывает Богомолова и его командира – майора НКВД Маркелова. В последний момент Богомолов бежит. Теперь уже только он сам, в одиночку, без поддержки Большой Земли, должен выполнить задание и тем самым обелить себя и своего командира.-Реклама: Нет-Предыдущие и альтернативные раздачи- - -Качество: HDTVRip-AVC / HDTV 1080i
Формат: MKV
Видео кодек: H.264
Аудио кодек: AC3-Видео: MPEG-4 AVC, 768x324 (2.40:1), 25.000 fps, ~982 kbps avg, 0.158 bit/pixel
Аудио: 48 kHz, AC3 Dolby Digital, 2/0 (L,R) ch, ~192 kbps avg-

MediaInfo

Код:Complete name : D:\Раздача\Прыжок Богомола (2019)\01 - Прыжок Богомола (2019) HDTVRip-AVC_ivanes.mkv
Format : Matroska
Format version : Version 2
File size : 746 MiB
Duration : 1 h 28 min
Overall bit rate : 1 176 kb/s
Movie name : 01 - Прыжок Богомола (2019) HDTVRip-AVC_ivanes
Encoded date : UTC 2019-05-12 19:44:11
Writing application : mkvmerge v4.4.0 ('Die Wiederkehr') сборка от Jan 3 2011 21:40:45
Writing library : libebml v1.0.0 + libmatroska v1.0.0
Cover : Yes
Attachments : cover.jpg
Video
ID : 1
Format : AVC
Format/Info : Advanced Video Codec
Format profile : High@L4.1
Format settings, CABAC : Yes
Format settings, RefFrames : 10 frames
Codec ID : V_MPEG4/ISO/AVC
Duration : 1 h 28 min
Bit rate : 982 kb/s
Width : 768 pixels
Height : 324 pixels
Display aspect ratio : 2.40:1
Frame rate mode : Constant
Frame rate : 25.000 FPS
Color space : YUV
Chroma subsampling : 4:2:0
Bit depth : 8 bits
Scan type : Progressive
Bits/(Pixel*Frame) : 0.158
Stream size : 609 MiB (82%)
Title : Rip by ivanes
Writing library : x264 core 157 r2969 d4099dd
Encoding settings : cabac=1 / ref=10 / deblock=1:-3:-3 / analyse=0x3:0x113 / me=umh / subme=8 / psy=1 / psy_rd=1.00:0.00 / mixed_ref=1 / me_range=32 / chroma_me=1 / trellis=2 / 8x8dct=1 / cqm=0 / deadzone=21,11 / fast_pskip=0 / chroma_qp_offset=-2 / threads=10 / lookahead_threads=2 / sliced_threads=0 / nr=0 / decimate=1 / interlaced=0 / bluray_compat=0 / constrained_intra=0 / bframes=10 / b_pyramid=2 / b_adapt=2 / b_bias=0 / direct=1 / weightb=1 / open_gop=0 / weightp=2 / keyint=250 / keyint_min=25 / scenecut=40 / intra_refresh=0 / rc_lookahead=60 / rc=2pass / mbtree=0 / bitrate=982 / ratetol=1.0 / qcomp=0.60 / qpmin=0 / qpmax=69 / qpstep=4 / cplxblur=20.0 / qblur=0.5 / vbv_maxrate=50000 / vbv_bufsize=62500 / nal_hrd=none / filler=0 / ip_ratio=1.40 / pb_ratio=1.30 / aq=1:1.00
Default : Yes
Forced : No
Statistics Tags Issue : mkvmerge v10.0.0 ('To Drown In You') 64bit 2019-05-12 19:42:11 / mkvmerge v4.4.0 ('Die Wiederkehr') сборка от Jan 3 2011 21:40:45 2019-05-12 19:44:11
FromStats_BitRate : 982000
FromStats_Duration : 01:28:43.120000000
FromStats_FrameCount : 133078
FromStats_StreamSize : 653413367
Audio
ID : 2
Format : AC-3
Format/Info : Audio Coding 3
Format settings, Endianness : Big
Codec ID : A_AC3
Duration : 1 h 28 min
Bit rate mode : Constant
Bit rate : 192 kb/s
Channel(s) : 2 channels
Channel positions : Front: L R
Sampling rate : 48.0 kHz
Frame rate : 31.250 FPS (1536 SPF)
Bit depth : 16 bits
Compression mode : Lossy
Stream size : 122 MiB (16%)
Language : Russian
Service kind : Complete Main
Default : Yes
Forced : No

Скриншоты

[cybertorrent.net].t2773.torrent 
Торрент: Зарегистрирован [ 2019-05-13 15:31 ] · 6C7A59CB431A8309D5CCABA13608032BB2714A4B

Скачать .torrent

Скачать

15 KB

Статус: проверено
Скачан: 0 раз
Размер: 1,46 GB  ·  Тип торрента
terms.php
Показать сообщения:    

Текущее время: 08-Авг 20:58

Часовой пояс: UTC ± 0



Вы не можете начинать темы
Вы не можете отвечать на сообщения
Вы не можете редактировать свои сообщения
Вы не можете удалять свои сообщения
Вы не можете голосовать в опросах
Вы не можете прикреплять файлы к сообщениям
Вы можете скачивать файлы