Статистика раздачи
Размер:  1,46 GB   |    Зарегистрирован:  6 месяцев 2 дня   |    Скачан:  0 раз

Полного источника не было: Никогда

 
     
 
 

karlll ®

Пол:
Не указан
Стаж:
8 месяцев 3 дня
Сообщений:
171

Легенда о разорении династии / Jue ji
Страна: Китай, Камбоджа
Жанр: мультфильм, фэнтези
Год выпуска: 2016
Продолжительность: 01:57:33-Перевод: Профессиональный (дублированный) | СВ-Дубль
Субтитры: нет
Оригинальная аудиодорожка: нет-Режиссер: Го Цзинмин / Guo Jingming-В ролях: Фань Бинбин, Чени Чэнь, Крис У,Уильям Чан, Эмбер Ко, Джелли Линь, Ян Ми, Рой Ван, Кевин Янь, Тони Ван-Описание: Деревенский парнишка Чилин работал на подхвате в местной таверне, когда в город пришли столичные маги-алхимики. Маги собирались поймать опасное чудовище — ледяного енота — но слегка ошиблись с животным и заплатили за это жизнью.
Но зато в эту страшную ночь, погубившую множество жизней, у Чилина проснулись магические способности. Он случайно обуздал зверя, после чего был взят в ученики одним из верховных алхимиков Гланорта — Инь Чэнем (Силвером). Теперь деревенский простачок оказался вовлечен в самое пекло политических интриг и бесконечной борьбы магов за власть над континентом. Власть, способную сокрушить всё мироздание.- -Качество видео: WEB-DLRip
Формат видео: AVI
Видео: 720x304 (2.37:1), 23.976 fps, XviD build 73 ~1573 kbps avg, 0.30 bit/pixel
Аудио: 48 kHz, AC3 Dolby Digital, 2/0 (L,R) ch, ~192 kbps-[box]Сэмпл[/box]-

MediaInfo

Код:Формат : AVI
Формат/Информация : Audio Video Interleave
Размер файла : 1,46 Гбайт
Продолжительность : 1 ч. 57 м.
Общий поток : 1775 Кбит/сек
Название фильма : Легенда о разорении династии_2016_WEB-DLRip
Программа кодирования : VirtualDubMod 1.5.10.3 | www.virtualdub-fr.org || (build 2550/release)
Авторское право : порошков
Видео
Идентификатор : 0
Формат : MPEG-4 Visual
Профиль формата : Advanced Simple@L5
Настройки формата : BVOP1 / Custom Matrix
Параметр BVOP формата : 1
Параметр QPel формата : Нет
Параметр GMC формата : Без точки перехода
Параметр матрицы формата : Выборочная
Идентификатор кодека : XVID
Идентификатор кодека/Подсказка : XviD
Продолжительность : 1 ч. 57 м.
Битрейт : 1573 Кбит/сек
Ширина : 720 пикселей
Высота : 304 пикселя
Соотношение сторон : 2,35:1
Частота кадров : 23,976 (24000/1001) кадра/сек
Цветовое пространство : YUV
Субдискретизация насыщенности : 4:2:0
Битовая глубина : 8 бит
Тип развёртки : Прогрессивная
Метод сжатия : С потерями
Бит/(Пиксели*Кадры) : 0.300
Размер потока : 1,29 Гбайт (89%)
Библиотека кодирования : XviD 73
Аудио
Идентификатор : 1
Формат : AC-3
Формат/Информация : Audio Coding 3
Коммерческое название : Dolby Digital
Идентификатор кодека : 2000
Продолжительность : 1 ч. 57 м.
Вид битрейта : Постоянный
Битрейт : 192 Кбит/сек
Каналы : 2 канала
ChannelLayout : L R
Частота : 48,0 КГц
Частота кадров : 31,250 кадров/сек (1536 SPF)
Битовая глубина : 16 бит
Метод сжатия : С потерями
Размер потока : 161 Мбайт (11%)
Выравнивание : Разделение по промежуткам
Продолжительность промежутка : 42 мс. (1,00 видеокадр)
Время предзагрузки промежутка : 500 мс.
ServiceKind/String : Complete Main

Скриншоты


[cybertorrent.net].t2769.torrent 
Торрент: Зарегистрирован [ 2019-05-13 15:31 ] · D681B81100E1B370BC64890C6B08A6D9685EB7B6

Скачать .torrent

Скачать

15 KB

Статус: проверено
Скачан: 0 раз
Размер: 1,46 GB
terms.php
Профиль ЛС
Показать сообщения:    

Текущее время: 15-Ноя 20:50

Часовой пояс: UTC ± 0



Вы не можете начинать темы
Вы не можете отвечать на сообщения
Вы не можете редактировать свои сообщения
Вы не можете удалять свои сообщения
Вы не можете голосовать в опросах
Вы не можете прикреплять файлы к сообщениям
Вы можете скачивать файлы