Статистика раздачи
Размер:  7,05 GB   |    Зарегистрирован:  6 месяцев 26 дней   |    Скачан:  0 раз
Сидов:  4  [  0 KB/s  ]  
 
     
 
 

Гость ®

Пол:
Не указан

Люцифер | Lucifer- - Год выпуска: 2019
Страна: США
Жанр: Фэнтези, драма, криминал
Продолжительность: ~ 00:45:00-Перевод: Профессиональный (дублированный) | АРК-ТВ Studio-Режиссёр: Лен Уайзман / Len Wiseman-В ролях: Рэйчел Харрис, Лорен Джерман, Кайла Юэлл, Кевин Алехандро, Лесли-Энн Брандт, Д.Б. Вудсайд, Том Эллис, Мэтт Корбой, Скарлет Эстевез-Описание: Заскучавший и несчастный повелитель преисподней, Люцифер Морнингстар оставил свой престол и отправился в современный Лос-Анджелес, где основал ночной клуб «Lux». Очаровательный, харизматичный и дьявольски привлекательный Люцифер наслаждается своим отдыхом — вином, женщинами и музыкой — пока красивая поп-звезда не оказывается убитой на пороге его клуба…- -[box=#aed8ff,#003465]Ссылка на предыдущие и альтернативные раздачи[/box]-Качество: WEB-DLRip
Формат: AVI
Видео: XviD, 720x400 (16:9), 23.976 кадров/сек, 1600 Кбит/сек
Аудио Rus: AC3, 48,0 kHz, 2 ch, 192 Кбит/сек | АРК-ТВ Studio
Аудио Eng: AC3, 48,0 kHz, 2 ch, 192 Кбит/сек
Субтитры: Русские (Forced, Full), английские (SDH)
Реклама: Отсутствует-

✘ Релиз ✘

• Спасибо Wilmots за исходник
-

Список серий

  • 01. Всё в порядке | Everything's Okay
  • 02. Кто-то читал Ад от Данте | Somebody's Been Reading Dante's Inferno
  • 03. О, немного веры, Отче | O, Ye of Little Faith, Father
  • 04. Всё о Еве | All About Eve
  • 05. Возведённое истечение | Expire Erect
  • 06. Штаны для работы | Orgy Pants to Work
  • 07. Дьявол делает как дьявол | Devil Is As Devil Does
  • 08. Очень плохой парень | Super Bad Boyfriend
  • 09. Спасти Люцифера | Save Lucifer
  • 10. Кто станет новым королём Ада? | Who's da New King of Hell?
-

MediaInfo

Общее
Полное имя : E:\Lucifer (Season 4) WEB-DLRip АРК-ТВ Studio\Lucifer.S04E01.WEB-DLRip.RGzsRutracker.[Wentworth_Miller].avi
Формат : AVI
Формат/Информация : Audio Video Interleave
Размер файла : 696 Мбайт
Продолжительность : 48 м. 41 с.
Общий поток : 1998 Кбит/сек
Название фильма : Lucifer 04x01 (Everything's Okay) Release by Wentworth_Miller
Программа кодирования : VirtualDubMod 1.5.10.3 | www.virtualdub-fr.org || (build 2550/release)
Видео
Идентификатор : 0
Формат : MPEG-4 Visual
Профиль формата : Advanced Simple@L5
Настройки формата : BVOP1
Параметр BVOP формата : 1
Параметр QPel формата : Нет
Параметр GMC формата : Без точки перехода
Параметр матрицы формата : Default (MPEG)
Идентификатор кодека : XVID
Идентификатор кодека/Подсказка : XviD
Продолжительность : 48 м. 41 с.
Битрейт : 1600 Кбит/сек
Ширина : 720 пикселей
Высота : 400 пикселей
Соотношение сторон : 16:9
Частота кадров : 23,976 (24000/1001) кадра/сек
Цветовое пространство : YUV
Субдискретизация насыщенности : 4:2:0
Битовая глубина : 8 бит
Тип развёртки : Прогрессивная
Метод сжатия : С потерями
Бит/(Пиксели*Кадры) : 0.232
Размер потока : 557 Мбайт (80%)
Библиотека кодирования : XviD 67
Аудио #1
Идентификатор : 1
Формат : AC-3
Формат/Информация : Audio Coding 3
Коммерческое название : Dolby Digital
Идентификатор кодека : 2000
Продолжительность : 48 м. 41 с.
Вид битрейта : Постоянный
Битрейт : 192 Кбит/сек
Каналы : 2 канала
ChannelLayout : L R
Частота : 48,0 КГц
Частота кадров : 31,250 кадров/сек (1536 SPF)
Битовая глубина : 16 бит
Метод сжатия : С потерями
Размер потока : 66,9 Мбайт (10%)
Выравнивание : Разделение по промежуткам
Продолжительность промежутка : 42 мс. (1,00 видеокадр)
Время предзагрузки промежутка : 500 мс.
ServiceKind/String : Complete Main
Аудио #2
Идентификатор : 2
Формат : AC-3
Формат/Информация : Audio Coding 3
Коммерческое название : Dolby Digital
Идентификатор кодека : 2000
Продолжительность : 48 м. 41 с.
Вид битрейта : Постоянный
Битрейт : 192 Кбит/сек
Каналы : 2 канала
ChannelLayout : L R
Частота : 48,0 КГц
Частота кадров : 31,250 кадров/сек (1536 SPF)
Битовая глубина : 16 бит
Метод сжатия : С потерями
Размер потока : 66,9 Мбайт (10%)
Выравнивание : Разделение по промежуткам
Продолжительность промежутка : 42 мс. (1,00 видеокадр)
Время предзагрузки промежутка : 500 мс.
ServiceKind/String : Complete Main
-

Скриншоты

-Релиз группы:
[cybertorrent.net].t2766.torrent 
Торрент: Зарегистрирован [ 2019-05-13 15:31 ] · A4EC1B948EAE5F33981D371E1C07E7DBFE8C23B6

Скачать .torrent

Скачать

39 KB

Статус: проверено
Скачан: 0 раз
Размер: 7,05 GB
terms.php
Показать сообщения:    

Текущее время: 09-Дек 06:09

Часовой пояс: UTC ± 0



Вы не можете начинать темы
Вы не можете отвечать на сообщения
Вы не можете редактировать свои сообщения
Вы не можете удалять свои сообщения
Вы не можете голосовать в опросах
Вы не можете прикреплять файлы к сообщениям
Вы можете скачивать файлы