Статистика раздачи
Размер:  37 MB   |    Зарегистрирован:  5 месяцев 30 дней   |    Скачан:  0 раз

Полного источника не было: Никогда

 
     
 
 

Гость ®

Пол:
Не указан

Оранжевая песня
Страна: Россия
Жанр: музыкальный мультфильм
Продолжительность: 00:03:29
Год выпуска: 2019
Русские субтитры: нет
Режиссёр: Алексей Алексеев
Поёт: Лана Королёва
Описание: Из цикла "МультиПелки".
Экранизация "Оранжевой песни" на стихи Григория Горина и Аркадия Арканова.
Доп. информация: Приз за лучший фильм для детей - Фестиваль анимации в Суздале (2019)
Качество: WEBRip-AVC
Формат: MP4
Видео: 1332 kbps, 1280х720 (16:9), 25.000 fps, AVC (High@L3.1)
Аудио: 128 kbps, 44.1 kHz, 2 channels, AAC (LC)
Субтитры: отсутствуют

Подробные технические данные

General
Complete name : Оранжевая песня (2019).mp4
Format : MPEG-4
Format profile : Base Media / Version 2
Codec ID : mp42
File size : 36.5 MiB
Duration : 3mn 29s
Overall bit rate mode : Variable
Overall bit rate : 1 463 Kbps
Encoded date : UTC 2019-05-05 14:06:04
Tagged date : UTC 2019-05-05 14:06:04
Writing application : Google
gsst : 0
gstd : 209467
Video
ID : 1
Format : AVC
Format/Info : Advanced Video Codec
Format profile : High@L3.1
Format settings, CABAC : Yes
Format settings, ReFrames : 3 frames
Codec ID : avc1
Codec ID/Info : Advanced Video Coding
Duration : 3mn 29s
Bit rate : 1 332 Kbps
Width : 1 280 pixels
Height : 720 pixels
Display aspect ratio : 16:9
Frame rate mode : Constant
Frame rate : 25.000 fps
Color space : YUV
Chroma subsampling : 4:2:0
Bit depth : 8 bits
Scan type : Progressive
Bits/(Pixel*Frame) : 0.058
Stream size : 33.3 MiB (91%)
Title : ISO Media file produced by Google Inc. Created on: 05/05/2019.
Encoded date : UTC 2019-05-05 14:06:04
Tagged date : UTC 2019-05-05 14:06:04
Color primaries : BT.709
Transfer characteristics : BT.709
Matrix coefficients : BT.709
Audio
ID : 2
Format : AAC
Format/Info : Advanced Audio Codec
Format profile : LC
Codec ID : 40
Duration : 3mn 29s
Bit rate mode : Variable
Bit rate : 128 Kbps
Channel(s) : 2 channels
Channel positions : Front: L R
Sampling rate : 44.1 KHz
Compression mode : Lossy
Stream size : 3.20 MiB (9%)
Title : ISO Media file produced by Google Inc. Created on: 05/05/2019.
Language : English
Encoded date : UTC 2019-05-05 14:06:04
Tagged date : UTC 2019-05-05 14:06:04

Скриншоты

[cybertorrent.net].t2759.torrent 
Торрент: Зарегистрирован [ 2019-05-12 17:05 ] · E233B181946261BD804291B731B50D2D3B7AC939

Скачать .torrent

Скачать

12 KB

Статус: проверено
Скачан: 0 раз
Размер: 37 MB
terms.php
Показать сообщения:    

Текущее время: 11-Ноя 20:12

Часовой пояс: UTC ± 0



Вы не можете начинать темы
Вы не можете отвечать на сообщения
Вы не можете редактировать свои сообщения
Вы не можете удалять свои сообщения
Вы не можете голосовать в опросах
Вы не можете прикреплять файлы к сообщениям
Вы можете скачивать файлы