Статистика раздачи
Размер:  15,36 GB   |    Зарегистрирован:  6 месяцев 2 дня   |    Скачан:  0 раз

Полного источника не было: Никогда

 
     
 
 

Гость ®

Пол:
Не указан

Лабиринты Разума
Год выпуска: 2006
Производство: Россия
Жанр: документальный, мистика, фантастика
Продолжительность: 8х52 мин
Субтитры: нет
Режиссёр: Аркадий Тигай, Мирослав Малич
В ролях: Елена Симонова, Сергей Барковский, Даниела Стоянович, Галина Бокашевская
Описание: Лабиринты Разума — мистический приключенческий сериал, в основе которого реально происходившие события, не поддающиеся пока научному объяснению, такие как телепатия, реинкарнация, телекинез, лунатизм и др.
Экспертами в нашей работе выступают известнейшие светила науки: Вадим Чернобров, (Московский Институт аномальных явлений), Наталья Бехтерева (Санкт-Петербургский Институт мозга), Алексей Вовк (психолог).
Серии:
Диск 1
1. «Пазл». 51:64
2. «Дверь». 52:19
3. «Визави». 52:10
4. «Серафима». 48:38
Диск 2
5. «Эйнштейн». 51:15
6. «Иваныч». 51:21
7. «Курьер». 52:59
8. «Наследница». 53:13
Доп. информация: Копии с украинских лицензионных DVD. Вначале каждого диска не отключаемая реклама фильмов.
Реклама: Да
Сэмпл: http://multi-up.com/1231921
Качество: DVD9
Формат: DVD-Video
Видео кодек: MPEG2
Аудио кодек: AC3
Видео: MPEG2 Video 720x576 (4:3) 25fps 4340 kb/s 0.419
Аудио: Dolby AC3 48000Hz stereo 256kbps

DVDInfo

Title: LABIRINT_1
Size: 7.83 Gb ( 8 213 788,00 KBytes ) - DVD-9
Enabled regions: 1, 2, 3, 4, 5, 6, 7, 8
VTS_01 :
Play Length: 00:04:20
Video: PAL 4:3 (720x576) VBR
Audio:
Russian (Dolby AC3, 6 ch)
VTS_02 :
Play Length: 03:25:02
Video: PAL 4:3 (720x576) VBR
Audio:
Russian (Dolby AC3, 2 ch)
VTS_03 :
Play Length: 00:04:32
Video: PAL 4:3 (720x576) VBR
Audio:
Russian (Dolby AC3, 2 ch)
VTS_04 :
Play Length: 00:02:26+00:01:41+00:01:31+00:02:14+00:02:57
Video: PAL 4:3 (720x576) VBR
Audio:
Russian (Dolby AC3, 2 ch)
* Menus Information *
VIDEO_TS Menu
Video:
PAL 4:3 (720x576) VBR
Russian Language Unit :
Title Menu
VTS_01 Menu
Video:
NTSC 4:3 (720x480) VBR
Auto Pan&Scan, Auto Letterboxed
Language Unit :
Subpicture Menu
Angle menu
Language Unit :
Subpicture Menu
Angle menu
Language Unit :
Subpicture Menu
Angle menu
Language Unit :
Subpicture Menu
Angle menu
Language Unit :
Subpicture Menu
Angle menu
VTS_02 Menu
Video:
PAL 4:3 (720x576) VBR
Audio:
Not specified (Dolby AC3, 2 ch)
Russian Language Unit :
Root Menu
Chapter (PTT) Menu
VTS_03 Menu
Video:
PAL 4:3 (720x576) VBR
Russian Language Unit :
Root Menu
VTS_04 Menu
Video:
PAL 4:3 (720x576) VBR
Audio:
Not specified (Dolby AC3, 2 ch)
Russian Language Unit :
Root Menu

MI

General
Complete name : H:\Лабиринты разума 2\LABIRINT_1\VIDEO_TS\VTS_02_3.VOB
Format : MPEG-PS
File size : 1 024 MiB
Duration : 30 min 31 s
Overall bit rate mode : Variable
Overall bit rate : 4 690 kb/s
Video
ID : 224 (0xE0)
Format : MPEG Video
Format version : Version 2
Format profile : Main@Main
Format settings : CustomMatrix / BVOP
Format settings, BVOP : Yes
Format settings, Matrix : Custom
Format settings, GOP : Variable
Format settings, picture struc : Frame
Duration : 30 min 31 s
Bit rate mode : Variable
Bit rate : 4 340 kb/s
Maximum bit rate : 9 200 kb/s
Width : 720 pixels
Height : 576 pixels
Display aspect ratio : 4:3
Frame rate : 25.000 FPS
Standard : PAL
Color space : YUV
Chroma subsampling : 4:2:0
Bit depth : 8 bits
Scan type : Interlaced
Scan order : Top Field First
Compression mode : Lossy
Bits/(Pixel*Frame) : 0.419
Time code of first frame : 00:06:43:17
Time code source : Group of pictures header
GOP, Open/Closed : Open
Stream size : 947 MiB (93%)
Audio
ID : 189 (0xBD)-128 (0x80)
Format : AC-3
Format/Info : Audio Coding 3
Format settings, Endianness : Big
Muxing mode : DVD-Video
Duration : 30 min 31 s
Bit rate mode : Constant
Bit rate : 256 kb/s
Channel(s) : 2 channels
Channel positions : Front: L R
Sampling rate : 48.0 kHz
Frame rate : 31.250 FPS (1536 SPF)
Bit depth : 16 bits
Compression mode : Lossy
Delay relative to video : -240 ms
Stream size : 55.9 MiB (5%)
Service kind : Complete Main
Menu

Скриншоты

Предыдущие и альтернативные раздачи
[cybertorrent.net].t2757.torrent 
Торрент: Зарегистрирован [ 2019-05-12 17:05 ] · 5970B995FF342321B71A9C72790BCD01E87F64CC

Скачать .torrent

Скачать

42 KB

Статус: проверено
Скачан: 0 раз
Размер: 15,36 GB
terms.php
Показать сообщения:    

Текущее время: 14-Ноя 17:19

Часовой пояс: UTC ± 0



Вы не можете начинать темы
Вы не можете отвечать на сообщения
Вы не можете редактировать свои сообщения
Вы не можете удалять свои сообщения
Вы не можете голосовать в опросах
Вы не можете прикреплять файлы к сообщениям
Вы можете скачивать файлы