Статистика раздачи
Размер:  1,45 GB   |    Зарегистрирован:  5 месяцев 30 дней   |    Скачан:  0 раз

Полного источника не было: Никогда

 
     
 
 

karlll ®

Пол:
Не указан
Стаж:
7 месяцев 30 дней
Сообщений:
171

Муми-тролли и зимняя сказка / Muumien taikatalvi
Страна: Финляндия, Польша
Жанр: мультфильм, фэнтези, комедия, приключения, семейный
Год выпуска: 2017
Продолжительность: 01:22:29-Перевод: Профессиональный (дублированный)
Субтитры: русские
Оригинальная аудиодорожка: нет-Режиссер: Ира Карпелан / Ira Carpelan, Якуб Вронски / Jakub Wronski-В ролях: Акира Такаки, Никлас Акерфельт, Веса Вьерикко, Ойва Лохтандер, Мария Сид, Диандра Флорес, Саара Лехтонен, Нина Хуккинен, Лин Готони, Билл Скарсгард-Описание: Необыкновенная история происходит в долине муми-троллей, волшебной стране, где живут эти сказочные персонажи. Муми-троллю не спится, и вместо спячки он решает познакомиться с зимой. Встречая странных существ, блуждающих по заснеженной долине муми-троллей в зимнем сумраке, главный герой пытается узнать, кто же такой — этот чудесный гость Рождество…- -Качество видео: WEBRip
Формат видео: AVI
Видео: 720x384 (1.88:1), 24.000 fps, XviD build 73 ~2323 kbps avg, 0.35 bit/pixel
Аудио: 48 kHz, AC3 Dolby Digital, 2/0 (L,R) ch, ~192 kbps-[box]Сэмпл[/box]-

MediaInfo

Код:Формат : AVI
Формат/Информация : Audio Video Interleave
Размер файла : 1,45 Гбайт
Продолжительность : 1 ч. 22 м.
Общий поток : 2525 Кбит/сек
Название фильма : Муми-тролли и зимняя сказка_2017_WEBRip
Программа кодирования : VirtualDubMod 1.5.10.3 | www.virtualdub-fr.org || (build 2550/release)
Авторское право : порошков
Видео
Идентификатор : 0
Формат : MPEG-4 Visual
Профиль формата : Advanced Simple@L5
Настройки формата : BVOP1 / Custom Matrix
Параметр BVOP формата : 1
Параметр QPel формата : Нет
Параметр GMC формата : Без точки перехода
Параметр матрицы формата : Выборочная
Идентификатор кодека : XVID
Идентификатор кодека/Подсказка : XviD
Продолжительность : 1 ч. 22 м.
Битрейт : 2323 Кбит/сек
Ширина : 720 пикселей
Высота : 384 пикселя
Соотношение сторон : 1,85:1
Частота кадров : 24,000 кадра/сек
Цветовое пространство : YUV
Субдискретизация насыщенности : 4:2:0
Битовая глубина : 8 бит
Тип развёртки : Прогрессивная
Метод сжатия : С потерями
Бит/(Пиксели*Кадры) : 0.350
Размер потока : 1,34 Гбайт (92%)
Библиотека кодирования : XviD 73
Аудио
Идентификатор : 1
Формат : AC-3
Формат/Информация : Audio Coding 3
Коммерческое название : Dolby Digital
Идентификатор кодека : 2000
Продолжительность : 1 ч. 22 м.
Вид битрейта : Постоянный
Битрейт : 192 Кбит/сек
Каналы : 2 канала
ChannelLayout : L R
Частота : 48,0 КГц
Частота кадров : 31,250 кадров/сек (1536 SPF)
Битовая глубина : 16 бит
Метод сжатия : С потерями
Размер потока : 113 Мбайт (8%)
Выравнивание : Разделение по промежуткам
Продолжительность промежутка : 42 мс. (1,00 видеокадр)
Время предзагрузки промежутка : 500 мс.
ServiceKind/String : Complete Main

Скриншоты


[cybertorrent.net].t2755.torrent 
Торрент: Зарегистрирован [ 2019-05-12 17:05 ] · B1496B9712BDF13F4F8F517C3119312D6D170B3E

Скачать .torrent

Скачать

15 KB

Статус: проверено
Скачан: 0 раз
Размер: 1,45 GB
terms.php
Профиль ЛС
Показать сообщения:    

Текущее время: 12-Ноя 06:23

Часовой пояс: UTC ± 0



Вы не можете начинать темы
Вы не можете отвечать на сообщения
Вы не можете редактировать свои сообщения
Вы не можете удалять свои сообщения
Вы не можете голосовать в опросах
Вы не можете прикреплять файлы к сообщениям
Вы можете скачивать файлы