Статистика раздачи
Размер:  1,37 GB   |    Зарегистрирован:  6 месяцев 3 дня   |    Скачан:  0 раз

Полного источника не было: Никогда

 
     
 
 

karlll ®

Пол:
Не указан
Стаж:
8 месяцев 3 дня
Сообщений:
171

Маленький большой герой / Monkey King Reloaded
Страна: Китай, Гонконг
Жанр: мультфильм, приключения, семейный, детский
Год выпуска: 2017
Продолжительность: 01:13:12-Перевод: Профессиональный (дублированный)
Субтитры: русские
Оригинальная аудиодорожка: нет-Режиссер: Феликс Ип / Felix Ip, Пол Ван / Paul Wang-В ролях: Ян Тяньсян, Го Чжэнцзянь, Тутэ Хамэн-Описание: Маленькая обезьянка Санни всю жизнь прожил в своем родном зоопарке, но мечтал о Большом Городе и Настоящих Приключениях. И однажды судьба забрасывает его в Большой Нью-Йорк, где его ждут приключения, опасности, новые друзья, а самое главное встреча с Главным Злодеем, могущественным Королем Демонов, мечтающим разрушить город мечты Санни. Маленькой Обезьянке придется стать Большим Героем, чтобы спасти Нью-Йорк и новых друзей.- -Качество видео: WEBRip
Формат видео: AVI
Видео: 704x320 (2.20:1), 25 fps, XviD build 73 ~2281 kbps avg, 0.41 bit/pixel
Аудио 1: 48 kHz, AC3 Dolby Digital, 2/0 (L,R) ch, ~192 kbps | rus
Аудио 2: 48 kHz, AC3 Dolby Digital, 2/0 (L,R) ch, ~192 kbps | ukr-[box]Сэмпл[/box]-

MediaInfo

Код:Формат : AVI
Формат/Информация : Audio Video Interleave
Размер файла : 1,37 Гбайт
Продолжительность : 1 ч. 13 м.
Общий поток : 2681 Кбит/сек
Название фильма : Маленький большой герой_2017_WEBRip
Программа кодирования : VirtualDubMod 1.5.10.3 | www.virtualdub-fr.org || (build 2550/release)
Авторское право : порошков
Видео
Идентификатор : 0
Формат : MPEG-4 Visual
Профиль формата : Advanced Simple@L5
Настройки формата : BVOP1 / Custom Matrix
Параметр BVOP формата : 1
Параметр QPel формата : Нет
Параметр GMC формата : Без точки перехода
Параметр матрицы формата : Выборочная
Идентификатор кодека : XVID
Идентификатор кодека/Подсказка : XviD
Продолжительность : 1 ч. 13 м.
Битрейт : 2282 Кбит/сек
Ширина : 704 пикселя
Высота : 320 пикселей
Соотношение сторон : 2,2:1
Частота кадров : 25,000 кадров/сек
Цветовое пространство : YUV
Субдискретизация насыщенности : 4:2:0
Битовая глубина : 8 бит
Тип развёртки : Прогрессивная
Метод сжатия : С потерями
Бит/(Пиксели*Кадры) : 0.405
Размер потока : 1,17 Гбайт (85%)
Библиотека кодирования : XviD 73
Аудио #1
Идентификатор : 1
Формат : AC-3
Формат/Информация : Audio Coding 3
Коммерческое название : Dolby Digital
Идентификатор кодека : 2000
Продолжительность : 1 ч. 13 м.
Вид битрейта : Постоянный
Битрейт : 192 Кбит/сек
Каналы : 2 канала
ChannelLayout : L R
Частота : 48,0 КГц
Частота кадров : 31,250 кадров/сек (1536 SPF)
Битовая глубина : 16 бит
Метод сжатия : С потерями
Размер потока : 101 Мбайт (7%)
Выравнивание : Разделение по промежуткам
Продолжительность промежутка : 40 мс. (1,00 видеокадр)
Время предзагрузки промежутка : 500 мс.
Заголовок : Rus
ServiceKind/String : Complete Main
Аудио #2
Идентификатор : 2
Формат : AC-3
Формат/Информация : Audio Coding 3
Коммерческое название : Dolby Digital
Идентификатор кодека : 2000
Продолжительность : 1 ч. 13 м.
Вид битрейта : Постоянный
Битрейт : 192 Кбит/сек
Каналы : 2 канала
ChannelLayout : L R
Частота : 48,0 КГц
Частота кадров : 31,250 кадров/сек (1536 SPF)
Битовая глубина : 16 бит
Метод сжатия : С потерями
Размер потока : 101 Мбайт (7%)
Выравнивание : Разделение по промежуткам
Продолжительность промежутка : 40 мс. (1,00 видеокадр)
Время предзагрузки промежутка : 500 мс.
Заголовок : Ukr
ServiceKind/String : Complete Main

Скриншоты


[cybertorrent.net].t2750.torrent 
Торрент: Зарегистрирован [ 2019-05-12 17:05 ] · 6CFC366D966470FCA16326DDF3905B152EC2ED19

Скачать .torrent

Скачать

14 KB

Статус: проверено
Скачан: 0 раз
Размер: 1,37 GB
terms.php
Профиль ЛС
Показать сообщения:    

Текущее время: 15-Ноя 20:52

Часовой пояс: UTC ± 0



Вы не можете начинать темы
Вы не можете отвечать на сообщения
Вы не можете редактировать свои сообщения
Вы не можете удалять свои сообщения
Вы не можете голосовать в опросах
Вы не можете прикреплять файлы к сообщениям
Вы можете скачивать файлы