Статистика раздачи
Размер:  1,45 GB   |    Зарегистрирован:  6 месяцев 23 дня   |    Скачан:  0 раз
Сидов:  5  [  0 KB/s  ]  
 
     
 
 

serzh ®

Пол:
Не указан
Стаж:
8 месяцев 24 дня
Сообщений:
384

Дьявольский мед / Мед дьявола / The Devil's Honey / Il miele del diavolo
Страна: Испания, Италия
Жанр: триллер
Год выпуска: 1986
Продолжительность: 01:22:47
Перевод: Авторский (одноголосый закадровый) Владимир Штейн
Субтитры: нет
Оригинальная аудиодорожка: нет
Режиссер: Лучио Фульчи / Lucio Fulci
В ролях: Бретт Хэлси, Коринн Клери, Бланка Марсильяч, Стефано Мадиа, Паула Молина, Бернард Серай, Кэролин Де Фонсека, Лучио Фульчи, Эулалия Рамон
Описание: По оплошности доктора Симпсона на операционном столе умирает молодой саксофонист Джонни, получивший тяжёлые травмы после падения с мотоцикла. Его девушка Джессика похищает врача, которого считает виновным в смерти Джонни. В пляжном домике она сажает его на цепь и начинает дьявольские пытки.
Сэмпл: https://yadi.sk/i/8OCh67Xb3XkmU2
Качество видео: BDRip [источник The Devil's Honey / Il miele del diavolo 1986 1080p Blu-ray AVC LPCM 2.0-BaggerInc]
Формат видео: AVI
Видео: Xvid, 720x384 (1,85:1), 23.976 fps, 2299 kbps, 0.347 bit/pixel
Аудио: AC3, 48 kHz, 2.0, 192 kbps

MediaInfo

Общее
Полное имя : The.Devil's.Honey.1986.BDRip.Xvid.avi
Формат : AVI
Формат/Информация : Audio Video Interleave
Размер файла : 1,45 Гбайт
Продолжительность : 1 ч. 22 м.
Общий поток : 2501 Кбит/сек
Программа кодирования : VirtualDubMod 1.5.10.3 | www.virtualdub-fr.org || (build 2550/release)
Библиотека кодирования : VirtualDubMod build 2550/release
Видео
Идентификатор : 0
Формат : MPEG-4 Visual
Профиль формата : Advanced Simple@L5
Параметр BVOP формата : 1
Параметр QPel формата : Нет
Параметр GMC формата : Без точки перехода
Параметр матрицы формата : Выборочная
Идентификатор кодека : XVID
Идентификатор кодека/Подсказка : XviD
Продолжительность : 1 ч. 22 м.
Битрейт : 2299 Кбит/сек
Ширина : 720 пикселей
Высота : 384 пикселя
Соотношение сторон : 1,85:1
Частота кадров : 23,976 кадра/сек
Цветовое пространство : YUV
Субдискретизация насыщенности : 4:2:0
Битовая глубина : 8 бит
Тип развёртки : Прогрессивная
Метод сжатия : С потерями
Бит/(Пиксели*Кадры) : 0.347
Размер потока : 1,33 Гбайт (92%)
Библиотека кодирования : XviD 73
Аудио
Идентификатор : 1
Формат : AC-3
Формат/Информация : Audio Coding 3
Расширение режима : CM (complete main)
Параметр Endianness формата : Big
Идентификатор кодека : 2000
Продолжительность : 1 ч. 22 м.
Вид битрейта : Постоянный
Битрейт : 192 Кбит/сек
Каналы : 2 канала
Расположение каналов : Front: L R
Частота : 48,0 КГц
Битовая глубина : 16 бит
Метод сжатия : С потерями
Размер потока : 114 Мбайт (8%)
Выравнивание : Разделение по промежуткам
Продолжительность промежутка : 42 мс. (1,00 видеокадр)
Время предзагрузки промежутка : 500 мс.

Скриншоты

[cybertorrent.net].t2748.torrent 
Торрент: Зарегистрирован [ 2019-05-12 17:05 ] · 91DACA3514AE37654DD71BC1448B83ABCE2FC87D

Скачать .torrent

Скачать

15 KB

Статус: проверено
Скачан: 0 раз
Размер: 1,45 GB
terms.php
Профиль [ЛС]
Показать сообщения:    

Текущее время: 05-Дек 15:57

Часовой пояс: UTC ± 0



Вы не можете начинать темы
Вы не можете отвечать на сообщения
Вы не можете редактировать свои сообщения
Вы не можете удалять свои сообщения
Вы не можете голосовать в опросах
Вы не можете прикреплять файлы к сообщениям
Вы можете скачивать файлы