Статистика раздачи
Размер:  1,43 GB   |    Зарегистрирован:  6 месяцев 9 дней   |    Скачан:  0 раз
Сидов:  42  [  0 KB/s  ]   Личеров:  8  [  0 KB/s  ]  
 
     
 
 

солнышко ®

Пол:
Не указан
Стаж:
8 месяцев 10 дней
Сообщений:
565

Юкатан / Yucatán Страна: Испания
Жанр: комедия
Год выпуска: 2018
Продолжительность: 02:09:43
Перевод: Одноголосый (закадровый) [maksciganov] по переводу студии "Синема-УС"
Режиссёр: Даниэль Монсон / Daniel Monzón
В главных ролях: Луис Тосар, Родриго Де ла Серна, Жоан Пера, Стефани Кайо, Глория Муньос, Алисия Фернандес, Ткселл Эксендри, Лупе Рода, Августин Хименес, Хорхе Асин
Описание: Два соперничающих афериста Лукас и Роберто, а также их возлюбленная Вероника вступают в борьбу за право облапошить выигравшего в лотерею 160 миллионов евро пекаря Антонио, который отправился в круиз вместе со своей многочисленной семьей, тоже претендующей на его деньги.- -Видео исходник: Yucatan.2018.1080p.BluRay.x264-BiPOLAR
Качество видео: HDRip
Формат видео: АVI
Видео: 720x304 (2.35:1), 24.000 fps, XviD ~1380 kbps avg, 0.263 bit/pixel
Аудио : 48 kHz, AC3 Dolby Digital, 2/0 (L,R) ch, ~192 kbps-
Спасибо студии "Синема-УС" за перевод фильма.

Дороги 5.1_AC3, DTS, отдельно

Дорога с переводом в формате AC3. 5.1, 448 kbps к этому видео или к другому, с продолжительностью_02:09:43 ,
и в формате DTS. 5.1, 1509 kbps ( будет чуть позже, после раздачи фильма)

MediaInfo

General
Complete name : Yucatan.2018.HDRip.VO.maksciganov.avi
Format : AVI
Format/Info : Audio Video Interleave
File size : 1.43 GiB
Duration : 2h 9mn
Overall bit rate : 1 582 Kbps
Writing application : VirtualDubMod 1.5.10.3 | www.virtualdub-fr.org || (build 2550/release)
Writing library : VirtualDubMod build 2550/release
Video
ID : 0
Format : MPEG-4 Visual
Format profile : Advanced Simple@L5
Format settings, BVOP : 2
Format settings, QPel : No
Format settings, GMC : No warppoints
Format settings, Matrix : Default (MPEG)
Codec ID : XVID
Codec ID/Hint : XviD
Duration : 2h 9mn
Bit rate : 1 380 Kbps
Width : 720 pixels
Height : 304 pixels
Display aspect ratio : 2.35:1
Frame rate : 24.000 fps
Color space : YUV
Chroma subsampling : 4:2:0
Bit depth : 8 bits
Scan type : Progressive
Compression mode : Lossy
Bits/(Pixel*Frame) : 0.263
Stream size : 1.25 GiB (87%)
Writing library : XviD 1.2.1 (UTC 2008-12-04)
Audio
ID : 1
Format : AC-3
Format/Info : Audio Coding 3
Mode extension : CM (complete main)
Codec ID : 2000
Duration : 2h 9mn
Bit rate mode : Constant
Bit rate : 192 Kbps
Channel(s) : 2 channels
Channel positions : Front: L R
Sampling rate : 48.0 KHz
Bit depth : 16 bits
Compression mode : Lossy
Stream size : 178 MiB (12%)
Alignment : Split accross interleaves
Interleave, duration : 42 ms (1.00 video frame)
Interleave, preload duration : 500 ms

Скриншот c названием фильма

[cybertorrent.net].t2745.torrent 
Торрент: Зарегистрирован [ 2019-05-12 17:05 ] · 23D2CDFBB595C75DCB781709867402210A4425FE

Скачать .torrent

Скачать

15 KB

Статус: проверено
Скачан: 0 раз
Размер: 1,43 GB
terms.php
Профиль [ЛС]
Показать сообщения:    

Текущее время: 22-Ноя 12:58

Часовой пояс: UTC ± 0



Вы не можете начинать темы
Вы не можете отвечать на сообщения
Вы не можете редактировать свои сообщения
Вы не можете удалять свои сообщения
Вы не можете голосовать в опросах
Вы не можете прикреплять файлы к сообщениям
Вы можете скачивать файлы