Статистика раздачи
Размер:  1,46 GB   |    Зарегистрирован:  5 месяцев 30 дней   |    Скачан:  0 раз

Полного источника не было: Никогда

 
     
 
 

солнышко ®

Пол:
Не указан
Стаж:
7 месяцев 30 дней
Сообщений:
565

Стальная страна / Steel Country / A Dark Place
Страна: Великобритания
Жанр: триллер, детектив
Год выпуска: 2018
Продолжительность: 01:29:38-Перевод: Любительский (многоголосый закадровый) | HDRezka Studio
Субтитры: нет
Оригинальная аудиодорожка: английский-Режиссер: Саймон Феллоуз / Simon Fellows-В ролях: Эндрю Скотт, Денис Гоф, Дж.Д. Эвермор, Катрин Дайер, Брона Во, Грифф Ферст, Сандра Эллис Лэфферти, Кристиан Финлейсон, Джаред Банкенс, Кори Скотт Аллен-Описание: Когда мальчик пропадает без вести на окраине сонного городка в штатах, местный мусорщик Дональд решает разобраться с этим делом сам. Работая над этим он сталкивается с враждебностью со стороны полицейских и всех остальных, когда начинает задавать неудобные вопросы об обстоятельствах жизни мертвого ребенка. Донни совсем не умный и не хитрый, поэтому сразу весь город - и скорбящие родители - узнают, о том, что он ищет правду. Вскоре враждебность превращается в прямые угрозы, которые только усиливают его подозрение, что в этом инциденте есть какая-то скрытая, мрачная правда.- -Качество видео: WEB-DLRip
Формат видео: AVI
Видео: 720x304 (2.37:1), 23.976 fps, XviD build 73 ~1931 kbps avg, 0.37 bit/pixel
Аудио 1: 48 kHz, AC3 Dolby Digital, 2/0 (L,R) ch, ~192 kbps | rus
Аудио 2: 48 kHz, AC3 Dolby Digital, 2/0 (L,R) ch, ~192 kbps | eng-[box]Сэмпл[/box]-

MediaInfo

Код:Формат : AVI
Формат/Информация : Audio Video Interleave
Размер файла : 1,46 Гбайт
Продолжительность : 1 ч. 29 м.
Общий поток : 2330 Кбит/сек
Название фильма : Стальная страна_2018_WEB-DLRip
Программа кодирования : VirtualDubMod 1.5.10.3 | www.virtualdub-fr.org || (build 2550/release)
Авторское право : порошков
Видео
Идентификатор : 0
Формат : MPEG-4 Visual
Профиль формата : Advanced Simple@L5
Настройки формата : BVOP1 / Custom Matrix
Параметр BVOP формата : 1
Параметр QPel формата : Нет
Параметр GMC формата : Без точки перехода
Параметр матрицы формата : Выборочная
Идентификатор кодека : XVID
Идентификатор кодека/Подсказка : XviD
Продолжительность : 1 ч. 29 м.
Битрейт : 1932 Кбит/сек
Ширина : 720 пикселей
Высота : 304 пикселя
Соотношение сторон : 2,35:1
Частота кадров : 23,976 (24000/1001) кадра/сек
Цветовое пространство : YUV
Субдискретизация насыщенности : 4:2:0
Битовая глубина : 8 бит
Тип развёртки : Прогрессивная
Метод сжатия : С потерями
Бит/(Пиксели*Кадры) : 0.368
Размер потока : 1,21 Гбайт (83%)
Библиотека кодирования : XviD 73
Аудио #1
Идентификатор : 1
Формат : AC-3
Формат/Информация : Audio Coding 3
Коммерческое название : Dolby Digital
Идентификатор кодека : 2000
Продолжительность : 1 ч. 29 м.
Вид битрейта : Постоянный
Битрейт : 192 Кбит/сек
Каналы : 2 канала
ChannelLayout : L R
Частота : 48,0 КГц
Частота кадров : 31,250 кадров/сек (1536 SPF)
Битовая глубина : 16 бит
Метод сжатия : С потерями
Размер потока : 123 Мбайт (8%)
Выравнивание : Разделение по промежуткам
Продолжительность промежутка : 42 мс. (1,00 видеокадр)
Время предзагрузки промежутка : 500 мс.
Заголовок : Rus
ServiceKind/String : Complete Main
Аудио #2
Идентификатор : 2
Формат : AC-3
Формат/Информация : Audio Coding 3
Коммерческое название : Dolby Digital
Идентификатор кодека : 2000
Продолжительность : 1 ч. 29 м.
Вид битрейта : Постоянный
Битрейт : 192 Кбит/сек
Каналы : 2 канала
ChannelLayout : L R
Частота : 48,0 КГц
Частота кадров : 31,250 кадров/сек (1536 SPF)
Битовая глубина : 16 бит
Метод сжатия : С потерями
Размер потока : 123 Мбайт (8%)
Выравнивание : Разделение по промежуткам
Продолжительность промежутка : 42 мс. (1,00 видеокадр)
Время предзагрузки промежутка : 500 мс.
Заголовок : Eng
ServiceKind/String : Complete Main

Скриншоты


[cybertorrent.net].t2737.torrent 
Торрент: Зарегистрирован [ 2019-05-12 17:05 ] · BB989F43F6EC626941CAD042D79F40A50381C06A

Скачать .torrent

Скачать

15 KB

Статус: проверено
Скачан: 0 раз
Размер: 1,46 GB
terms.php
Профиль ЛС
Показать сообщения:    

Текущее время: 12-Ноя 06:22

Часовой пояс: UTC ± 0



Вы не можете начинать темы
Вы не можете отвечать на сообщения
Вы не можете редактировать свои сообщения
Вы не можете удалять свои сообщения
Вы не можете голосовать в опросах
Вы не можете прикреплять файлы к сообщениям
Вы можете скачивать файлы