Статистика раздачи
Размер:  11,68 GB   |    Зарегистрирован:  6 месяцев 3 дня   |    Скачан:  0 раз
Сидов:  4  [  0 KB/s  ]  
 
     
 
 

Гость ®

Пол:
Не указан

Кровавая барыня / Салтычиха
Год выпуска: 2017
Производство: Кинокомпания "Иллюзион" по заказу кинокомпании "Маркес"
Жанр: драма, исторический фильм
Продолжительность: 16 x ~ 00:50:00
Субтитры: Нет
Режиссёр: Егор Анашкин
В ролях: Юлия Снигирь, Кристина Бабушкина, Северия Янушаускайте, Марта Тимофеева, Юрий Цурило, Фёдор Лавров, Пётр Рыков, Влад Соколовский, Игорь Ясулович, Анна Гуляренко, Екатерина Копанова, Михаил Васьков, Валентин Варецкий, Юрий Шлыков, Даниил Муравьев-Изотов, Даниил Коновалов (II), Анастасия Уколова, Егор Харламов, Артём Лощилин, Руслан Сабиров, Сергей Шеховцов, Иван Агапов, Татьяна Кузнецова, Михаил Владимиров, Антон Аносов, Мария Бердинских, Ксения Непотребная, Марина Дианова, Евгений Кулаков, Лилия Пысларь, Юрий Внуков, Павел Комаров (II), Сергей Мухин, Иван Федотов, Павел Ерлыков, Елена Блинникова (II), Анатолий Калмыков, Анастасия Матвеева, Анатолий Узденский, Екатерина Дурова, Дмитрий Куличков, Александр Асташёнок, Людмила Чиркова, Елена Муравьёва, Екатерина Рябова, Владимир Михайлов (II), Ярослав Ефременко, Леонид Королёв, Анастасия Лапина
Описание: По мотивам биографии помещицы Дарьи Салтыковой. XVIII век. Российская империя. Начало царствования Екатерины II. Рассказ о судьбе печально известной русской помещицы Дарьи Салтыковой, прозванной в народе «Салтычихой». «Салтычиха» вошла в историю как одна из самых жестоких убийц. Ее имя стало олицетворением кровожадности и бесчеловечности. После таинственной смерти мужа Глеба Салтыкова, она заточила себя в подмосковном поместье Троицкое, где срывала зло на своих несчастных безропотных слугах. За несколько лет она замучила и убила более сотни подвластных ей крепостных крестьян. За свои преступления Дарья Салтыкова была лишена дворянского чина, права называться человеческим именем (впредь ее следовало называть «Оно)» и приговорена к пожизненному заключению в земляной яме. Но как самая богатая вдова Российской империи, набожная дворянка, выросшая в монастыре в смирении и молитвах, превратилась в «мучительницу и душегубицу»? Что толкало ее на преступления? Недавно взошедшая на престол императрица Екатерина II, потрясенная зверствами Салтыковой, страстно желала смерти помещицы. Показательная казнь должна была упрочить статус молодой императрицы, а заодно и преподать урок зарвавшемуся московскому дворянству. Однако в последний момент Екатерина отменяет смертный приговор. Ко всеобщему изумлению, она сохраняет кровавой барыне жизнь. Так за какие же преступления на самом деле была наказана Салтыкова? И какая тайна навсегда связала Салтыкову с великой императрицей…?
Реклама: Нет
Сэмпл: http://multi-up.com/1230760
Качество: WEBRip-AVC
Формат: MKV
Видео кодек: H.264
Аудио кодек: AC3
Видео: MPEG-4 (AVC), 1024x424, 25 fps, ~ 1800 kbps, ~ 0.17 bit/pixel
Аудио: AC3, 2 ch, 192 kbps, 44.1 kHz

MI

General
Unique ID : 221701790624052755521236409237656192669 (0xA6CA3633DA5B0BC7B43637EFE882469D)
Complete name : Кровавая барыня (01-02 сер.).mkv
Format : Matroska
Format version : Version 2
File size : 1.46 GiB
Duration : 1 h 42 min
Overall bit rate : 2 036 kb/s
Encoded date : UTC 2019-03-30 06:17:23
Writing application : mkvmerge v7.8.0 ('River Man') 32bit built on Apr 3 2015 12:11:22
Writing library : libebml v1.3.1 + libmatroska v1.4.2
Video
ID : 1
Format : AVC
Format/Info : Advanced Video Codec
Format profile : High@L3.1
Format settings : CABAC / 6 Ref Frames
Format settings, CABAC : Yes
Format settings, ReFrames : 6 frames
Codec ID : V_MPEG4/ISO/AVC
Duration : 1 h 42 min
Bit rate : 1 842 kb/s
Width : 1 024 pixels
Height : 424 pixels
Display aspect ratio : 2.40:1
Frame rate mode : Constant
Frame rate : 25.000 FPS
Color space : YUV
Chroma subsampling : 4:2:0
Bit depth : 8 bits
Scan type : Progressive
Bits/(Pixel*Frame) : 0.170
Stream size : 1.29 GiB (89%)
Writing library : x264 core 157 r2969 d4099dd
Encoding settings : cabac=1 / ref=6 / deblock=1:0:0 / analyse=0x3:0x113 / me=umh / subme=8 / psy=1 / psy_rd=1.00:0.00 / mixed_ref=1 / me_range=24 / chroma_me=1 / trellis=1 / 8x8dct=1 / cqm=0 / deadzone=21,11 / fast_pskip=1 / chroma_qp_offset=-2 / threads=4 / lookahead_threads=4 / sliced_threads=0 / nr=0 / decimate=1 / interlaced=0 / bluray_compat=0 / stitchable=1 / constrained_intra=0 / bframes=6 / b_pyramid=2 / b_adapt=1 / b_bias=0 / direct=3 / weightb=1 / open_gop=0 / weightp=2 / keyint=250 / keyint_min=25 / scenecut=40 / intra_refresh=0 / rc_lookahead=40 / rc=2pass / mbtree=1 / bitrate=1842 / ratetol=1.0 / qcomp=0.60 / qpmin=0 / qpmax=69 / qpstep=4 / cplxblur=20.0 / qblur=0.5 / ip_ratio=1.40 / aq=1:1.00
Default : Yes
Forced : No
Audio
ID : 2
Format : AC-3
Format/Info : Audio Coding 3
Commercial name : Dolby Digital
Codec ID : A_AC3
Duration : 1 h 42 min
Bit rate mode : Constant
Bit rate : 192 kb/s
Channel(s) : 2 channels
Channel layout : L R
Sampling rate : 44.1 kHz
Frame rate : 28.711 FPS (1536 SPF)
Bit depth : 16 bits
Compression mode : Lossy
Stream size : 141 MiB (9%)
Service kind : Complete Main
Default : Yes
Forced : No

Скриншоты

Предыдущие и альтернативные раздачи
[cybertorrent.net].t2736.torrent 
Торрент: Зарегистрирован [ 2019-05-12 17:05 ] · 54BAB6F11CB7604348FCEA73EE371E742215BC38

Скачать .torrent

Скачать

30 KB

Статус: проверено
Скачан: 0 раз
Размер: 11,68 GB
terms.php
Показать сообщения:    

Текущее время: 15-Ноя 18:25

Часовой пояс: UTC ± 0



Вы не можете начинать темы
Вы не можете отвечать на сообщения
Вы не можете редактировать свои сообщения
Вы не можете удалять свои сообщения
Вы не можете голосовать в опросах
Вы не можете прикреплять файлы к сообщениям
Вы можете скачивать файлы