Статистика раздачи
Размер:  332 MB   |    Зарегистрирован:  6 месяцев 1 день   |    Скачан:  0 раз

Полного источника не было: Никогда

 
     
 
 

Гость ®

Пол:
Не указан

Необычные Рижане / Neparastie Ridzinieki
Страна: Латвия
Жанр: мультфильм, музыкальная сказка
Продолжительность: 00:25:48
Год выпуска: 2001
Перевод: субтитры
Русские субтитры: есть
Режиссёр: Розе Стиебра / Roze Stiebra
Композитор: Валтс Пуце / Valts Pūce
Песни исполняют: Даце Пуце / Dace Pūce, Ник Матвеев / Niks Matvejevs, Валтс Пуце / Valts Pūce и детский ансамбль "Knīpas un knauķi"
Описание: Современная сказка про необычных обитателей города Риги. Главный герой - юный петушок Юстыньш из семейства золотых петухов, сидящих на шпилях рижских башен. Сам он ещё мал, пока ещё не стал золотым и старшие не разрешают ему сидеть на шпиле. Юстыньш знакомится с девочкой Анце, вместе они отправляются посмотреть на Ригу, затем попадают в подземный мир, знакомятся с подземными обитателями и чуть не становятся добычей людоедов. Но всё заканчивается хорошо!
Доп. информация: Лучший мультипликационный фильм - Фестиваль "Lielais Kristaps" (2001)
Специальный приз жюри - Международный фестиваль "Крок" (2002)
Приз за лучший детский фильм - Фестиваль "Анимаёвка" (2002)
Качество: WEBRip
Формат: AVI
Видео: 1595 kbps, 704х528 (4:3), 25.000 fps, MPEG-4 Visual (XviD)
Аудио: 192 kbps, 44.1 kHz, 2 channels, MPEG Audio (MP3)
Субтитры: softsub (SRT)

Подробные технические данные

General
Complete name : Neparastie Ridzinieki (2001).avi
Format : AVI
Format/Info : Audio Video Interleave
File size : 332 MiB
Duration : 25mn 48s
Overall bit rate : 1 800 Kbps
Writing application : MEncoder SVN-r30881(20100311-gcc4.3.3)
Writing library : MPlayer
Video
ID : 0
Format : MPEG-4 Visual
Format profile : Advanced Simple@L5
Format settings, BVOP : 2
Format settings, QPel : No
Format settings, GMC : No warppoints
Format settings, Matrix : Default (H.263)
Codec ID : XVID
Codec ID/Hint : XviD
Duration : 25mn 48s
Bit rate : 1 595 Kbps
Width : 704 pixels
Height : 528 pixels
Display aspect ratio : 4:3
Original display aspect ratio : 4:3
Frame rate : 25.000 fps
Color space : YUV
Chroma subsampling : 4:2:0
Bit depth : 8 bits
Scan type : Progressive
Compression mode : Lossy
Bits/(Pixel*Frame) : 0.172
Stream size : 295 MiB (89%)
Writing library : XviD 1.2.1 (UTC 2008-12-04)
Audio
ID : 1
Format : MPEG Audio
Format version : Version 1
Format profile : Layer 3
Mode : Joint stereo
Mode extension : MS Stereo
Codec ID : 55
Codec ID/Hint : MP3
Duration : 25mn 48s
Bit rate mode : Constant
Bit rate : 192 Kbps
Channel(s) : 2 channels
Sampling rate : 44.1 KHz
Compression mode : Lossy
Delay relative to video : 40ms
Stream size : 35.4 MiB (11%)
Alignment : Aligned on interleaves
Interleave, duration : 26 ms (0.65 video frame)
Interleave, preload duration : 522 ms
Writing library : LAME3.98

Скриншоты

[cybertorrent.net].t2733.torrent 
Торрент: Зарегистрирован [ 2019-05-12 17:05 ] · 4AFB9F639FD2A4CCD37C26EC1B7E90815B6684F3

Скачать .torrent

Скачать

14 KB

Статус: проверено
Скачан: 0 раз
Размер: 332 MB
terms.php
Показать сообщения:    

Текущее время: 14-Ноя 04:03

Часовой пояс: UTC ± 0



Вы не можете начинать темы
Вы не можете отвечать на сообщения
Вы не можете редактировать свои сообщения
Вы не можете удалять свои сообщения
Вы не можете голосовать в опросах
Вы не можете прикреплять файлы к сообщениям
Вы можете скачивать файлы