Статистика раздачи
Размер:  1,46 GB   |    Зарегистрирован:  6 месяцев 10 дней   |    Скачан:  0 раз

Полного источника не было: Никогда

 
     
 
 

Гость ®

Пол:
Не указан

Фил Спектор / Phil Spector
Страна: США
Жанр: биография, драма
Год выпуска: 2013
Продолжительность: 01:31:45
Перевод: Профессиональный (многоголосый закадровый) Студия "Пифагор"
Субтитры: нет
Режиссер: Дэвид Мэмет / David Mamet
В ролях: Аль Пачино, Хелен Миррен, Джеффри Тэмбор, Чиветель Эджиофор, Ребекка Пиджон, Джон Пирруччелло, Джеймс Толкан, Наталья Ногулич
Описание: В 2003 году в калифорнийском особняке Фила Спектора звучат выстрелы. Найденное тело принадлежит актрисе Лане Кларксон. Хозяин особняка – прославленный музыкальный продюсер, начавший свою карьеру в 1960-х и перевернувший музыкальный бизнес благодаря своему изобретению – «стене звука», особому методу создания музыкальных записей. Он работал с лучшими музыкантами планеты, под его руководством в 60-70-х было записано множество хитов. Но последние годы он жил затворником, почти не покидая свое поместье. Теперь же ему предъявляют обвинение в убийстве второй степени. Адвокат Линда Кинни Бэйден берется защищать Спектора с внутренним убеждением в его виновности. Однако по ходу подготовки к процессу, в результате общения с подзащитным, она меняет свое мнение....

Сэмпл: https://yadi.sk/i/a2E8TTCtJkx--w
Качество видео: WEB-DLRip (Исходник WEB-DLRip 1080p)
Формат видео: AVI
Видео: XviD 73, 720x400, (16:9), 23,976 fps, 2079 Кбит/с, 8 бит, 0.30 bit/pixel
Аудио: Русский (АС3, 2 ch (Front: L R), 48,0 KHz, 192 Kbps)

MediaInfo

Общее
Полное имя : D:\Фильмы на трекер\Фил Спектор (биография, драма 2013 год).avi
Формат : AVI
Формат/Информация : Audio Video Interleave
Размер файла : 1,46 Гбайт
Продолжительность : 1 ч. 31 м.
Общий поток : 2280 Кбит/сек
Программа кодирования : VirtualDubMod 1.5.10.2 (build 2540/release)
Библиотека кодирования : VirtualDubMod build 2540/release
Видео
Идентификатор : 0
Формат : MPEG-4 Visual
Профиль формата : Advanced Simple@L5
Параметр BVOP формата : 2
Параметр QPel формата : Нет
Параметр GMC формата : Без точки перехода
Параметр матрицы формата : Выборочная
Идентификатор кодека : XVID
Идентификатор кодека/Подсказка : XviD
Продолжительность : 1 ч. 31 м.
Битрейт : 2079 Кбит/сек
Ширина : 720 пикселей
Высота : 400 пикселей
Соотношение сторон : 16:9
Частота кадров : 23,976 (23976/1000) кадра/сек
Цветовое пространство : YUV
Субдискретизация насыщенности : 4:2:0
Битовая глубина : 8 бит
Тип развёртки : Прогрессивная
Метод сжатия : С потерями
Бит/(Пиксели*Кадры) : 0.301
Размер потока : 1,33 Гбайт (91%)
Библиотека кодирования : XviD 73
Аудио
Идентификатор : 1
Формат : AC-3
Формат/Информация : Audio Coding 3
Расширение режима : CM (complete main)
Параметр Endianness формата : Big
Идентификатор кодека : 2000
Продолжительность : 1 ч. 31 м.
Вид битрейта : Постоянный
Битрейт : 192 Кбит/сек
Каналы : 2 канала
Расположение каналов : Front: L R
Частота : 48,0 КГц
Частота кадров : 31,250 кадров/сек (1536 spf)
Метод сжатия : С потерями
Размер потока : 126 Мбайт (8%)
Выравнивание : Разделение по промежуткам
Продолжительность промежутка : 42 мс. (1,00 видеокадр)
Время предзагрузки промежутка : 500 мс.

Скриншот c названием фильма

Скриншоты

Знаете ли вы, что

На роль Линды была утверждена Бетт Мидлер, но в самом начале съемок актриса сильно повредила спину и была вынуждена отказаться от участия. На роль пригласили оскароносную Хелен Миррен, которая в этот момент находилась в отпуске в Италии и не планировала сниматься в течение двух-трех месяцев. Однако, узнав, что Дэвид Мэмет снимает фильм по собственному сценарию с Аль Пачино в главной роли, Миррен согласилась участвовать в проекте. Ей удалось договориться, что на площадке она появится не через 4 дня, а через неделю, чтобы успеть внимательно изучить сценарий и хоть немного подготовиться к съемкам. -- Аль Пачино не стал искать встречи с находящимся в заключении Филом Спектором, объясняя это тем, что он играет Фила каким его увидел Мэмет, тем более, до того, как он попал в тюрьму.
[cybertorrent.net].t2730.torrent 
Торрент: Зарегистрирован [ 2019-05-11 16:35 ] · C8CFEB5539DA43A85E6B9EB3934F0CD7D79E4D7D

Скачать .torrent

Скачать

15 KB

Статус: проверено
Скачан: 0 раз
Размер: 1,46 GB
terms.php
Показать сообщения:    

Текущее время: 22-Ноя 13:13

Часовой пояс: UTC ± 0



Вы не можете начинать темы
Вы не можете отвечать на сообщения
Вы не можете редактировать свои сообщения
Вы не можете удалять свои сообщения
Вы не можете голосовать в опросах
Вы не можете прикреплять файлы к сообщениям
Вы можете скачивать файлы