Статистика раздачи
Размер:  2,33 GB   |    Зарегистрирован:  6 месяцев 4 дня   |    Скачан:  0 раз
Сидов:  59  [  0 KB/s  ]   Личеров:  6  [  0 KB/s  ]  
 
     
 
 

Гость ®

Пол:
Не указан

Звёзды и лисы
Год выпуска: 2019
Производство: Россия, ООО "Свэлл Фильм
Жанр: Детектив, экранизация
Продолжительность: 4 x ~ 00:45:00
Субтитры: Отсутствуют
Режиссёр: Пётр Амелин
В ролях: Иван Колесников, Мария Скуратова (II), Дмитрий Белякин, Дарья Ленда, Павел Григорьев, Елена Сафонова, Ольга Самошина, Виталий Такс, Владислав Демьяненко, Андрей Чуманов, Алексей Нилов, Фёдор Яковлев, Кира Кауфман, Сергей Шелгунов, Валентина Ведерникова, Игорь Ключников, Юлия Яковлева, Юрий Герцман, Борис Чистяков, Ольга Кожевникова, Александр Дюрис, Олег Хамитов, Игорь Ламба, Дмитрий Соловьёв (II), Александр Вонтов
Описание: Ник Галицкий работает научным сотрудником в обычном НИИ, а его брат Сандро - известный рэпер. В один "прекрасный" день Сандро задерживает полиция. Следователь обвиняет его в убийстве постороннего человека, почему-то завещавшего братьям всё свое имущество. Наследство оказывается весьма солидным, а смерть завещателя выгодна только наследникам. Сандро и Нику угрожает тюрьма, они должны во всем разобраться.
Реклама: Нет
Качество: SATRip
Формат: AVI
Видео кодек: XviD
Аудио кодек: MP3
Видео: XviD, 720x400, ~ 1700 Кбит/с, 0.235 bit/pixel
Аудио: МР3, 2 ch, 192 Кбит/с

MI

Общее
Полное имя : D:\Звезы.И.Лисы.XviD.2019.SATRp.7turza\01.Звезды.И.Лисы.7turza.avi
Формат : AVI
Формат/Информация : Audio Video Interleave
Размер файла : 600 Мбайт
Продолжительность : 44 м. 12 с.
Общий поток : 1898 Кбит/сек
Программа кодирования : Lavf58.20.100
Библиотека кодирования : VirtualDub build 35576/release
Видео
Идентификатор : 0
Формат : MPEG-4 Visual
Профиль формата : Advanced Simple@L5
Настройки формата : BVOP1
Параметр BVOP формата : 1
Параметр QPel формата : Нет
Параметр GMC формата : Без точки перехода
Параметр матрицы формата : Default (H.263)
Идентификатор кодека : XVID
Идентификатор кодека/Подсказка : XviD
Продолжительность : 44 м. 12 с.
Битрейт : 1693 Кбит/сек
Ширина : 720 пикселей
Высота : 400 пикселей
Соотношение сторон : 1,85:1
Частота кадров : 25,000 кадров/сек
Цветовое пространство : YUV
Субдискретизация насыщенности : 4:2:0
Битовая глубина : 8 бит
Тип развёртки : Прогрессивная
Бит/(Пиксели*Кадры) : 0.235
Размер потока : 536 Мбайт (89%)
Библиотека кодирования : XviD 67
Аудио
Идентификатор : 1
Формат : MPEG Audio
Версия формата : Version 1
Профиль формата : Layer 3
Настройки формата : Joint stereo
Идентификатор кодека : 55
Идентификатор кодека/Подсказка : MP3
Продолжительность : 44 м. 12 с.
Вид битрейта : Постоянный
Битрейт : 192 Кбит/сек
Каналы : 2 канала
Частота : 48,0 КГц
Размер потока : 60,7 Мбайт (10%)
Выравнивание : Соединение по промежуткам
Продолжительность промежутка : 24 мс. (0,60 видеокадр)
Время предзагрузки промежутка : 504 мс.
Библиотека кодирования : LAME3.100

Скриншоты

Предыдущие и альтернативные раздачи
[cybertorrent.net].t2728.torrent 
Торрент: Зарегистрирован [ 2019-05-11 16:35 ] · 7F3D8167FE561B59A576275D8423A94E7195E535

Скачать .torrent

Скачать

12 KB

Статус: проверено
Скачан: 0 раз
Размер: 2,33 GB
terms.php
Показать сообщения:    

Текущее время: 15-Ноя 18:23

Часовой пояс: UTC ± 0



Вы не можете начинать темы
Вы не можете отвечать на сообщения
Вы не можете редактировать свои сообщения
Вы не можете удалять свои сообщения
Вы не можете голосовать в опросах
Вы не можете прикреплять файлы к сообщениям
Вы можете скачивать файлы