Статистика раздачи
Размер:  118 MB   |    Зарегистрирован:  6 месяцев 7 дней   |    Скачан:  0 раз

Полного источника не было: Никогда

 
     
 
 

Гость ®

Пол:
Не указан

Жираф / Kaelkirjak
Страна: СССР (Эстонская республика)
Жанр: мультфильм, сатира
Продолжительность: 00:09:08
Год выпуска: 1986
Перевод: не требуется
Русские субтитры: нет
Режиссёр: Рао Хейдметс / Rao Heidmets
Автор сценария и художник-постановщик: Прийт Пярн / Priit Pärn
Композитор: Олав Эхала / Olav Ehala
Описание: В городе открывается небольшой зоопарк, демонстрирующий живого жирафа. Однако смотритель зоопарка никак не может убедить суетных горожан посетить его заведение. Все его изощрённые рекламные ходы приводят лишь к бойкой раскупаемости тематических товаров...
Качество: VHSRip
Формат: AVI
Видео: 1598 kbps, 640х480 (4:3), 25.000 fps, MPEG-4 Visual (XviD)
Аудио: 192 kbps, 44.1 kHz, 2 channels, MPEG Audio (MP3)
Субтитры: отсутствуют

Подробные технические данные

General
Complete name : Жираф (1986).avi
Format : AVI
Format/Info : Audio Video Interleave
File size : 118 MiB
Duration : 9mn 8s
Overall bit rate : 1 802 Kbps
Writing application : Lavf57.41.100
Writing library : VirtualDub build 35491/release
Video
ID : 0
Format : MPEG-4 Visual
Format profile : Advanced Simple@L4
Format settings, BVOP : 2
Format settings, QPel : No
Format settings, GMC : No warppoints
Format settings, Matrix : Default (H.263)
Codec ID : XVID
Codec ID/Hint : XviD
Duration : 9mn 8s
Bit rate : 1 598 Kbps
Width : 640 pixels
Height : 480 pixels
Display aspect ratio : 4:3
Frame rate : 25.000 fps
Color space : YUV
Chroma subsampling : 4:2:0
Bit depth : 8 bits
Scan type : Progressive
Compression mode : Lossy
Bits/(Pixel*Frame) : 0.208
Stream size : 104 MiB (89%)
Writing library : XviD 73
Audio
ID : 1
Format : MPEG Audio
Format version : Version 1
Format profile : Layer 3
Mode : Joint stereo
Mode extension : MS Stereo
Codec ID : 55
Codec ID/Hint : MP3
Duration : 9mn 8s
Bit rate mode : Constant
Bit rate : 192 Kbps
Channel(s) : 2 channels
Sampling rate : 44.1 KHz
Compression mode : Lossy
Stream size : 12.6 MiB (11%)
Alignment : Aligned on interleaves
Interleave, duration : 26 ms (0.65 video frame)
Interleave, preload duration : 522 ms

Скриншоты

[cybertorrent.net].t2725.torrent 
Торрент: Зарегистрирован [ 2019-05-11 16:35 ] · 8C26A7AEF240DD661B3CF9B7FD00FA339227818D

Скачать .torrent

Скачать

19 KB

Статус: проверено
Скачан: 0 раз
Размер: 118 MB
terms.php
Показать сообщения:    

Текущее время: 19-Ноя 03:53

Часовой пояс: UTC ± 0



Вы не можете начинать темы
Вы не можете отвечать на сообщения
Вы не можете редактировать свои сообщения
Вы не можете удалять свои сообщения
Вы не можете голосовать в опросах
Вы не можете прикреплять файлы к сообщениям
Вы можете скачивать файлы