Статистика раздачи
Размер:  1,46 GB   |    Зарегистрирован:  6 месяцев   |    Скачан:  0 раз
Сидов:  2  [  0 KB/s  ]  
 
     
 
 

Гость ®

Пол:
Не указан

Винная страна / Wine Country
Страна: США
Жанр: комедия
Год выпуска: 2019
Продолжительность: 01:43:32-Перевод: Профессиональный (дублированный) | Невафильм
Субтитры: нет
Оригинальная аудиодорожка: нет-Режиссер: Эми Полер / Amy Poehler-В ролях: Майя Эрскин, Эми Полер, Майя Рудольф, Тина Фей, Ана Гастейер, Джейсон Шварцман, Черри Джонс, Паула Пелл, Кейт Комер, Рэйчел Дрэч-Описание: Что будет, если давние подруги соберутся в одном месте, где очень много вина? Комедийный фильм рассказывает о шести приятельницах решивших вместе провести выходные. В честь пятидесятилетия Ребекки, ее подруга Эбби собирает небольшую компанию чтобы отпраздновать юбилей и провести замечательный уикенд. Милые дамы отправляются в округ Напа, расположенный в Калифорнии. Это живописная и тихая долина славящаяся на весь мир своими виноградниками и конечно же вином, особенно Каберне. С Кэтрин и Эбби, на отдых едут домоседка Дженни, уставшая мама Наоми, законченный трудоголик и Вэл недавно перенесшая операцию. Все женщины воодушевлены и радуются хорошей возможности, отдохнуть и расслабиться как в прежние времена. Но по мере того как количества алкоголя в их крови увеличивается, всплывают многолетние обиды, сплетни и разногласия. Теперь они уже начинают сомневаться в своей дружбе, была ли она когда ни-будь настоящей?- -Качество видео: WEB-DLRip
Формат видео: AVI
Видео: 704x352 (2.00:1), 23.976 fps, XviD build 73 ~1622 kbps avg, 0.27 bit/pixel
Аудио: 48 kHz, AC3 Dolby Digital, 3/2 (L,C,R,l,r) + LFE ch, ~384 kbps-[box]Сэмпл[/box]-

MediaInfo

Код:Формат : AVI
Формат/Информация : Audio Video Interleave
Размер файла : 1,46 Гбайт
Продолжительность : 1 ч. 43 м.
Общий поток : 2016 Кбит/сек
Название фильма : Винная страна_2019_WEB-DLRip
Программа кодирования : VirtualDubMod 1.5.10.3 | www.virtualdub-fr.org || (build 2550/release)
Авторское право : порошков
Видео
Идентификатор : 0
Формат : MPEG-4 Visual
Профиль формата : Advanced Simple@L5
Настройки формата : BVOP1 / Custom Matrix
Параметр BVOP формата : 1
Параметр QPel формата : Нет
Параметр GMC формата : Без точки перехода
Параметр матрицы формата : Выборочная
Идентификатор кодека : XVID
Идентификатор кодека/Подсказка : XviD
Продолжительность : 1 ч. 43 м.
Битрейт : 1623 Кбит/сек
Ширина : 704 пикселя
Высота : 352 пикселя
Соотношение сторон : 2,000
Частота кадров : 23,976 (24000/1001) кадра/сек
Цветовое пространство : YUV
Субдискретизация насыщенности : 4:2:0
Битовая глубина : 8 бит
Тип развёртки : Прогрессивная
Метод сжатия : С потерями
Бит/(Пиксели*Кадры) : 0.273
Размер потока : 1,17 Гбайт (80%)
Библиотека кодирования : XviD 73
Аудио
Идентификатор : 1
Формат : AC-3
Формат/Информация : Audio Coding 3
Коммерческое название : Dolby Digital
Идентификатор кодека : 2000
Продолжительность : 1 ч. 43 м.
Вид битрейта : Постоянный
Битрейт : 384 Кбит/сек
Каналы : 6 каналов
ChannelLayout : L R C LFE Ls Rs
Частота : 48,0 КГц
Частота кадров : 31,250 кадров/сек (1536 SPF)
Битовая глубина : 16 бит
Метод сжатия : С потерями
Размер потока : 284 Мбайт (19%)
Выравнивание : Разделение по промежуткам
Продолжительность промежутка : 42 мс. (1,00 видеокадр)
Время предзагрузки промежутка : 500 мс.
ServiceKind/String : Complete Main

Скриншоты


[cybertorrent.net].t2719.torrent 
Торрент: Зарегистрирован [ 2019-05-11 16:35 ] · 1046E2950A7FB85BA4A0F5F8EE0D22CD43EA4B10

Скачать .torrent

Скачать

15 KB

Статус: проверено
Скачан: 0 раз
Размер: 1,46 GB
terms.php
Показать сообщения:    

Текущее время: 11-Ноя 20:33

Часовой пояс: UTC ± 0



Вы не можете начинать темы
Вы не можете отвечать на сообщения
Вы не можете редактировать свои сообщения
Вы не можете удалять свои сообщения
Вы не можете голосовать в опросах
Вы не можете прикреплять файлы к сообщениям
Вы можете скачивать файлы