Статистика раздачи
Размер:  1,85 GB   |    Зарегистрирован:  6 месяцев 1 день   |    Скачан:  0 раз

Полного источника не было: Никогда

 
     
 
 

serzh ®

Пол:
Не указан
Стаж:
8 месяцев
Сообщений:
384

Сладкоголосая птица юности / Sweet Bird of Youth
Страна: США
Жанр: драма, мелодрама
Год выпуска: 1989
Продолжительность: 01:31:55
Перевод: Профессиональный (двухголосый закадровый) НТВ
Перевод 2: Авторский (одноголосый закадровый) Гаврилов
Субтитры: английские (SDH)
Оригинальная аудиодорожка: английский
Режиссер: Николас Роуг / Nicolas Roeg
В ролях: Элизабет Тэйлор, Марк Хэрмон, Валери Перрин, Шерил Пэрис, Рип Торн, Рута Ли, Кевин Гир
Описание: Экранизация пьесы Теннесси Уильямса — классика американской литературы.
Предприимчивый молодой человек Чэнс Уэйн возвращается в родной город после безуспешных попыток попасть в Голливуд. С собой он привозит Александру Дель Лаго, увядающую кинозвезду, которую он пытается вернуть на экран, а заодно и самому проскочить в мир кино. Однако на родине он встречает свою бывшую возлюбленную Хэвенли, за роман с которой он и был в свое время изгнан из города отцом девушки, местным коррумпированным политиком. Хэвенли надеется возобновить давние отношения, и вскоре Чэнс оказывается меж двух огней.
Доп. информация: За найденный в сети исходник большое спасибо vlad66666.
Дорожка с Андреем Гавриловым - оцифровка собственной VHS - впервые на трекере.
В дорожку НТВ на эротическую сцену сделана вставка с переводом Гаврилова, всего несколько фраз - 00:07:27-00:09:12
Сэмпл: https://yadi.sk/i/JRhGQIycADi-cw
Сэмпл со вставкой: https://yadi.sk/i/sarAu2nOcZdR_w
Качество видео: WEB-DL-AVC
Формат видео: MKV
Видео: AVC; 768x576 (4:3); ~2260 Kbps; 25 fps
Аудио: AC3, 2.0 ch., 48 kHz, 192 kbps - НТВ
Аудио 2: AC3, 2.0 ch., 48 kHz, 192 kbps - Андрей Гаврилов
Аудио 3: E-AC3, 2.0 ch., 48 kHz, 224 kbps - english
Формат субтитров: softsub (SRT)

MediaInfo

Общее
Уникальный идентификатор : 227647539677741260946777944941704842052 (0xAB4352438B57B045D8E9CC3378290B44)
Полное имя : D:\Torrents\Sweet Bird of Youth [1989 WEB-DL-AVC].mkv
Формат : Matroska
Версия формата : Version 4
Размер файла : 1,85 Гбайт
Продолжительность : 1 ч. 31 м.
Режим общего битрейта : Переменный
Общий поток : 2874 Кбит/сек
Дата кодирования : UTC 2019-05-09 05:31:46
Программа кодирования : mkvmerge v19.0.0 ('Brave Captain') 32-bit
Библиотека кодирования : libebml v1.3.5 + libmatroska v1.4.8
Видео
Идентификатор : 1
Формат : AVC
Формат/Информация : Advanced Video Codec
Профиль формата : High@L3.1
Настройки формата : CABAC / 5 Ref Frames
Параметр CABAC формата : Да
Параметр RefFrames формата : 5 кадров
Идентификатор кодека : V_MPEG4/ISO/AVC
Продолжительность : 1 ч. 31 м.
Вид битрейта : Переменный
Битрейт : 2264 Кбит/сек
Максимальный битрейт : 2995 Кбит/сек
Ширина : 768 пикселей
Высота : 576 пикселей
Соотношение сторон : 4:3
Режим частоты кадров : Постоянный
Частота кадров : 25,000 кадров/сек
Цветовое пространство : YUV
Субдискретизация насыщенности : 4:2:0
Битовая глубина : 8 бит
Тип развёртки : Прогрессивная
Бит/(Пиксели*Кадры) : 0.205
Размер потока : 1,45 Гбайт (79%)
Default : Да
Forced : Нет
Цветовой диапазон : Limited
Основные цвета : BT.709
Характеристики трансфера : BT.709
Коэффициенты матрицы : BT.709
Аудио #1
Идентификатор : 2
Формат : AC-3
Формат/Информация : Audio Coding 3
Коммерческое название : Dolby Digital
Идентификатор кодека : A_AC3
Продолжительность : 1 ч. 31 м.
Вид битрейта : Постоянный
Битрейт : 192 Кбит/сек
Каналы : 2 канала
ChannelLayout : L R
Частота : 48,0 КГц
Частота кадров : 31,250 кадров/сек (1536 SPF)
Битовая глубина : 16 бит
Метод сжатия : С потерями
Размер потока : 126 Мбайт (7%)
Заголовок : DVO NTV
Язык : Russian
ServiceKind/String : Complete Main
Default : Нет
Forced : Нет
Аудио #2
Идентификатор : 3
Формат : AC-3
Формат/Информация : Audio Coding 3
Коммерческое название : Dolby Digital
Идентификатор кодека : A_AC3
Продолжительность : 1 ч. 31 м.
Вид битрейта : Постоянный
Битрейт : 192 Кбит/сек
Каналы : 2 канала
ChannelLayout : L R
Частота : 48,0 КГц
Частота кадров : 31,250 кадров/сек (1536 SPF)
Битовая глубина : 16 бит
Метод сжатия : С потерями
Размер потока : 126 Мбайт (7%)
Заголовок : AVO Gavrilov
Язык : Russian
ServiceKind/String : Complete Main
Default : Нет
Forced : Нет
Аудио #3
Идентификатор : 4
Формат : E-AC-3
Формат/Информация : Enhanced AC-3
Коммерческое название : Dolby Digital Plus
Идентификатор кодека : A_EAC3
Продолжительность : 1 ч. 31 м.
Вид битрейта : Постоянный
Битрейт : 224 Кбит/сек
Каналы : 2 канала
ChannelLayout : L R
Частота : 48,0 КГц
Частота кадров : 31,250 кадров/сек (1536 SPF)
Метод сжатия : С потерями
Размер потока : 147 Мбайт (8%)
Язык : English
ServiceKind/String : Complete Main
Default : Нет
Forced : Нет
Текст
Идентификатор : 5
Формат : UTF-8
Идентификатор кодека : S_TEXT/UTF8
Идентификатор кодека/Информация : UTF-8 Plain Text
Продолжительность : 1 ч. 30 м.
Битрейт : 61 бит/сек
ElementCount : 1459
Размер потока : 40,9 Кбайт (0%)
Заголовок : SDH
Язык : English
Default : Нет
Forced : Нет

Скриншот c названием фильма

Скриншоты

Сравнение с DVDRip

https://cybertorrent.ru/viewtopic.php?t=5182410
Слева DVDRip, справа WEB-DL-AVC

http://screenshotcomparison.com/comparison/135359
[cybertorrent.net].t2711.torrent 
Торрент: Зарегистрирован [ 2019-05-11 16:35 ] · B5EC4CB5AB2A5C32C166BEDF3CF07DCD862CAC8E

Скачать .torrent

Скачать

19 KB

Статус: проверено
Скачан: 0 раз
Размер: 1,85 GB
terms.php
Профиль ЛС
Показать сообщения:    

Текущее время: 13-Ноя 00:17

Часовой пояс: UTC ± 0



Вы не можете начинать темы
Вы не можете отвечать на сообщения
Вы не можете редактировать свои сообщения
Вы не можете удалять свои сообщения
Вы не можете голосовать в опросах
Вы не можете прикреплять файлы к сообщениям
Вы можете скачивать файлы