Статистика раздачи
Размер:  4,74 GB   |    Зарегистрирован:  6 месяцев 24 дня   |    Скачан:  0 раз

Полного источника не было: Никогда

 
     
 
 

serzh ®

Пол:
Не указан
Стаж:
8 месяцев 24 дня
Сообщений:
384

Человеческий фактор
The Human Factor
Страна: Великобритания
Жанр: политический триллер
Год выпуска: 1975
Продолжительность: 01:36:00
Перевод: профессиональный (многоголосый закадровый) Петербург 5 канал
Перевод: одноголосый закадровый ССК+
Оригинальная аудиодорожка: английская
Субтитры: английские-Режиссёр: Уэйн Кроуфорд / Wayne Crawford
В ролях: Джеймс Бролин, Доротея Берриман, Мег Фостер, Джун Чэдвик, Бретт Хэлси, Изабель Трюшон-Описание: Гражданский специалист-электронщик Джон Кинсдейл (Джордж Кеннеди), работающий по контракту в штаб-квартире Южного командования НАТО в Неаполе, Италия, выходит на след международных террористов, убивших его жену и троих детей и грозящих убивать по одной американской семье каждый следующий день. Итальянская полиция и спецслужбы, похоже, не могут ничего поделать с ними, и тогда на первый план выходит "человеческий фактор" в лице действующего согласно библейским заветам "зуб за зуб" и "око за око" Кинсдейла.- -Дорожку с MVO предоставил Hel_ka67, идеально отсинхронил её SunderAlv-Качество: DVDRemux
Формат: MKV
Видео: 720x480 (16:9) @ 854x480, MPEG-2 Video / 6479 kbps / 23,976 fps /
Аудио 1: AC3, 48 kHz, 2ch, 192.00 kbps: [RUS]
Аудио 2: AC3, 48 kHz, 2ch, 192.00 kbps: [RUS]
Аудио 3: AC3, 48 kHz, 2ch, 192.00 kbps: [ENG]
Формат субтитров: srt и оригинал
Разбивка на главы: да

DVDInfo

Title: THE HUMAN FACTOR
Size: 6.10 Gb ( 6 400 602,00 KBytes ) - DVD-9
Enabled regions: 1, 2, 3, 4, 5, 6, 7, 8
VTS_01 :
Play Length: 01:35:55
Video: NTSC 16:9 (720x480) VBR, Auto Letterboxed
Audio:
English, AC3, 2/0 (L,R) ch, 192 kbps, Delay 0 mSec
Subtitles:
English
VTS_02 :
Play Length: 00:00:33+00:00:13
Video: NTSC 4:3 (720x480) VBR
Audio:
English (Dolby AC3, 2 ch)
Subtitles:
English
VTS_03 :
Play Length: 00:26:00
Video: NTSC 16:9 (720x480) VBR, Auto Letterboxed
Audio:
English (Dolby AC3, 2 ch)
* Menus Information *
VIDEO_TS Menu
Video:
NTSC 4:3 (720x480) VBR
Audio:
Not specified (Dolby AC3, 2 ch)
English Language Unit :
Title Menu
VTS_01 Menu
Video:
NTSC 4:3 (720x480) VBR
Audio:
Not specified (Dolby AC3, 2 ch)
English Language Unit :
Root Menu
Subpicture Menu
Audio Menu
Angle menu
Chapter (PTT) Menu
VTS_02 Menu
Video:
NTSC 4:3 (720x480) VBR
English Language Unit :
Root Menu
VTS_03 Menu
Video:
NTSC 4:3 (720x480) VBR
Audio:
Not specified (Dolby AC3, 2 ch)
English Language Unit :
Root Menu

MediaInfo

Общее
Уникальный идентификатор : 320340329272775752777384679607400873214 (0xF0FF4DA2100D3AC62CFFC802C2FB3CFE)
Полное имя : D:\Ремуксы\[AORE] Cult Films Remuxes\THE HUMAN FACTOR 1975\The Human Factor 1975.mkv
Формат : Matroska
Версия формата : Version 4
Размер файла : 4,74 Гбайт
Продолжительность : 1 ч. 36 м.
Режим общего битрейта : Переменный
Общий поток : 7062 Кбит/сек
Дата кодирования : UTC 2019-04-18 20:40:21
Программа кодирования : mkvmerge v33.1.0 ('Primrose') 64-bit
Библиотека кодирования : libebml v1.3.7 + libmatroska v1.5.0
Видео
Идентификатор : 1
Формат : MPEG Video
Версия формата : Version 2
Профиль формата : Main@Main
Настройки формата : BVOP
Параметр BVOP формата : Да
Параметр матрицы формата : По умолчанию
Параметр GOP формата : M=3, N=13
Идентификатор кодека : V_MPEG2
Идентификатор кодека/Информация : MPEG 1 or 2 Video
Продолжительность : 1 ч. 36 м.
Вид битрейта : Переменный
Битрейт : 6479 Кбит/сек
Максимальный битрейт : 8500 Кбит/сек
Ширина : 720 пикселей
Высота : 480 пикселей
Соотношение сторон : 16:9
Соотношение сторон в оригинале : 2,40:1
Режим частоты кадров : Переменный
Частота кадров : 23,976 (23976/1000) кадра/сек
Частота кадров в оригинале : 23,976 (24000/1001) кадра/сек
Стандарт вещания : NTSC
Цветовое пространство : YUV
Субдискретизация насыщенности : 4:2:0
Битовая глубина : 8 бит
Тип развёртки : Прогрессивная
Порядок развёртки : 2:3 Pulldown
Метод сжатия : С потерями
Бит/(Пиксели*Кадры) : 0.782
Временной код первого кадра : 00:59:58:15
Оригинал временного кода : Group of pictures header
GOP, открыто/закрыто : Открыто
Размер потока : 4,35 Гбайт (92%)
Язык : English
Default : Нет
Forced : Нет
Основные цвета : BT.601 NTSC
Характеристики трансфера : BT.601
Коэффициенты матрицы : BT.601
Аудио #1
Идентификатор : 2
Формат : AC-3
Формат/Информация : Audio Coding 3
Коммерческое название : Dolby Digital
Идентификатор кодека : A_AC3
Продолжительность : 1 ч. 36 м.
Вид битрейта : Постоянный
Битрейт : 192 Кбит/сек
Каналы : 2 канала
Channel layout : L R
Частота : 48,0 КГц
Частота кадров : 31,250 кадров/сек (1536 SPF)
Битовая глубина : 16 бит
Метод сжатия : С потерями
Размер потока : 132 Мбайт (3%)
Заголовок : 5 канал С-Пб
Язык : Russian
ServiceKind/String : Complete Main
Default : Да
Forced : Нет
Аудио #2
Идентификатор : 3
Формат : AC-3
Формат/Информация : Audio Coding 3
Коммерческое название : Dolby Digital
Идентификатор кодека : A_AC3
Продолжительность : 1 ч. 36 м.
Вид битрейта : Постоянный
Битрейт : 192 Кбит/сек
Каналы : 2 канала
Channel layout : L R
Частота : 48,0 КГц
Частота кадров : 31,250 кадров/сек (1536 SPF)
Битовая глубина : 16 бит
Метод сжатия : С потерями
Размер потока : 132 Мбайт (3%)
Заголовок : VO (ССК+)
Язык : Russian
ServiceKind/String : Complete Main
Default : Нет
Forced : Нет
Аудио #3
Идентификатор : 4
Формат : AC-3
Формат/Информация : Audio Coding 3
Коммерческое название : Dolby Digital
Идентификатор кодека : A_AC3
Продолжительность : 1 ч. 36 м.
Вид битрейта : Постоянный
Битрейт : 192 Кбит/сек
Каналы : 2 канала
Channel layout : L R
Частота : 48,0 КГц
Частота кадров : 31,250 кадров/сек (1536 SPF)
Битовая глубина : 16 бит
Метод сжатия : С потерями
Размер потока : 132 Мбайт (3%)
Язык : English
ServiceKind/String : Complete Main
Default : Нет
Forced : Нет
Текст #1
Идентификатор : 5
Формат : UTF-8
Идентификатор кодека : S_TEXT/UTF8
Идентификатор кодека/Информация : UTF-8 Plain Text
Продолжительность : 1 ч. 33 м.
Битрейт : 56 бит/сек
ElementCount : 1478
Размер потока : 38,6 Кбайт (0%)
Язык : English
Default : Нет
Forced : Нет
Текст #2
Идентификатор : 6
Формат : VobSub
Режим смешивания : zlib
Идентификатор кодека : S_VOBSUB
Идентификатор кодека/Информация : Picture based subtitle format used on DVDs
Продолжительность : 1 ч. 33 м.
Битрейт : 5247 бит/сек
ElementCount : 1478
Размер потока : 3,51 Мбайт (0%)
Язык : English
Default : Нет
Forced : Нет
Меню
00:00:00.000 : en:Chapter 01
00:08:48.578 : en:Chapter 02
00:14:37.226 : en:Chapter 03
00:19:57.112 : en:Chapter 04
00:25:13.762 : en:Chapter 05
00:30:42.874 : en:Chapter 06
00:35:43.808 : en:Chapter 07
00:42:38.589 : en:Chapter 08
00:48:12.589 : en:Chapter 09
00:52:36.653 : en:Chapter 10
01:00:49.512 : en:Chapter 11
01:06:24.597 : en:Chapter 12
01:12:28.410 : en:Chapter 13
01:19:37.823 : en:Chapter 14
01:25:00.979 : en:Chapter 15
01:34:35.169 : en:Chapter 16

Скриншоты

Скриншоты меню

Интервью (без перевода)

https://yadi.sk/i/HW1pDtz6Llnw2A
DVD-RipДорожка с MVOВсем мои фильмам нужны сиды, так что не уходите с раздачи!A CultFilms™ Remux
[cybertorrent.net].t2710.torrent 
Торрент: Зарегистрирован [ 2019-05-11 16:35 ] · 68DE69EA0D4A755B0AE493F7F859ECA00788EACF

Скачать .torrent

Скачать

24 KB

Статус: проверено
Скачан: 0 раз
Размер: 4,74 GB
terms.php
Профиль [ЛС]
Показать сообщения:    

Текущее время: 05-Дек 15:54

Часовой пояс: UTC ± 0



Вы не можете начинать темы
Вы не можете отвечать на сообщения
Вы не можете редактировать свои сообщения
Вы не можете удалять свои сообщения
Вы не можете голосовать в опросах
Вы не можете прикреплять файлы к сообщениям
Вы можете скачивать файлы