Статистика раздачи
Размер:  2,68 GB   |    Зарегистрирован:  6 месяцев   |    Скачан:  0 раз

Полного источника не было: Никогда

 
     
 
 

serzh ®

Пол:
Не указан
Стаж:
7 месяцев 30 дней
Сообщений:
384

Удар в спину
Back Stab
Страна: Канада
Жанр: триллер, детектив
Год выпуска: 1990
Продолжительность: 01:27:05
Перевод: одноголосый закадровый (Неопознанный)
Оригинальная аудиодорожка: английская
Субтитры: датские-Режиссёр: Джим Кауфман / Jim Kaufman
В ролях: Джеймс Бролин, Доротея Берриман, Мег Фостер, Джун Чэдвик, Бретт Хэлси, Изабель Трюшон-Описание: Клифф Марфи — архитектор. Он был женат, но его жена умерла несколько лет назад. Теперь Клифф остался вдовцом. Через некоторое время Клифф знакомится с молодой женщиной Дженнифер. У Дженнифер имеются свои соображения для этой любовной связи с архитектором.
Но спокойное развитие событий нарушается убийством — в том доме, где Клифф и Дженнифер занимались любовью, убитым оказывается шеф архитектора. Теперь сам Клифф может оказаться под подозрением, и для того чтобы доказать свою невиновность, он должен разобраться в том, кто на самом деле убил его шефа.- -За звуковую дорожку с русским переводом большое спасибо Nekontroliruemij_devil
За синхронизацию звуковой дороги и работу со звуком огромная благодарность ale_x2008-Качество: DVDRemux
Формат: MKV
Видео: 720x576 (4:3) @ 768x576, MPEG-2 Video / 3991 kbps / 25,000 fps /
Аудио 1: AC3, 48 kHz, 2ch, 192.00 kbps: [RUS]
Аудио 2: AC3, 48 kHz, 6ch, 224.00 kbps: [ENG]
Формат субтитров: оригинал
Разбивка на главы: да

DVDInfo

Title: Back Stab 1990
Size: 3.17 Gb ( 3 322 848,00 KBytes ) - DVD-5
Enabled regions: 1, 2, 3, 4, 5, 6, 7, 8
VTS_01 :
Play Length: 01:27:05
Video: PAL 4:3 (720x576) VBR
Audio:
English, AC3, 3/2 (L,C,R,SL,SR)+LFE ch, 224 kbps, Delay 0 mSec
Subtitles:
Dansk
VTS_02 :
Play Length: 00:01:42
Video: PAL 4:3 (720x576) VBR
Audio:
English (Dolby AC3, 6 ch)
VTS_03 :
Play Length: 00:02:13
Video: PAL 4:3 (720x576) VBR
Audio:
English (Dolby AC3, 6 ch)
VTS_04 :
Play Length: 00:01:53
Video: PAL 4:3 (720x576) VBR
Audio:
English (Dolby AC3, 6 ch)
VTS_05 :
Play Length: 00:01:59
Video: PAL 4:3 (720x576) VBR
Audio:
English (Dolby AC3, 6 ch)
VTS_06 :
Play Length: 00:02:17
Video: PAL 4:3 (720x576) VBR
Audio:
English (Dolby AC3, 6 ch)
VTS_07 :
Play Length: 00:02:12
Video: PAL 4:3 (720x576) VBR
Audio:
English (Dolby AC3, 6 ch)
VTS_08 :
Play Length: 00:02:02
Video: PAL 4:3 (720x576) VBR
Audio:
English (Dolby AC3, 6 ch)
VTS_09 :
Play Length: 00:02:44
Video: PAL 4:3 (720x576) VBR
Audio:
English (Dolby AC3, 6 ch)
* Menus Information *
VIDEO_TS Menu
Video:
PAL 4:3 (720x576) VBR
English Language Unit :
Title Menu
VTS_01 Menu
Video:
PAL 4:3 (720x576) VBR
English Language Unit :
Root Menu
VTS_02 Menu
Video:
PAL 4:3 (720x576) VBR
English Language Unit :
Root Menu
VTS_03 Menu
Video:
PAL 4:3 (720x576) VBR
English Language Unit :
Root Menu
VTS_04 Menu
Video:
PAL 4:3 (720x576) VBR
English Language Unit :
Root Menu
VTS_05 Menu
Video:
PAL 4:3 (720x576) VBR
English Language Unit :
Root Menu
VTS_06 Menu
Video:
PAL 4:3 (720x576) VBR
English Language Unit :
Root Menu
VTS_07 Menu
Video:
PAL 4:3 (720x576) VBR
English Language Unit :
Root Menu
VTS_08 Menu
Video:
PAL 4:3 (720x576) VBR
English Language Unit :
Root Menu
VTS_09 Menu
Video:
PAL 4:3 (720x576) VBR
English Language Unit :
Root Menu

MediaInfo

General
Уникальный идентификатор : 258073159876567792910588324017953662472 (0xC22715283732CA7BDD5CEF8AC26D6608)
Полное имя : D:\Ремуксы\[AORE] Cult Films Remuxes\Back Stab 1990\Back Stab 1990.mkv
Формат : Matroska
Версия формата : Version 4
Размер файла : 2.68 GiB
Продолжительность : 1 h 27 min
Режим общего битрейта : Variable
Общий поток : 4 411 kb/s
Дата кодирования : UTC 2019-04-17 15:03:12
Программа кодирования : mkvmerge v33.1.0 ('Primrose') 64-bit
Библиотека кодирования : libebml v1.3.7 + libmatroska v1.5.0
Video
Идентификатор : 1
Формат : MPEG Video
Версия формата : Version 2
Профиль формата : Main@Main
Настройки формата : CustomMatrix / BVOP
Параметр BVOP формата : Yes
Параметр матрицы формата : Custom
Параметр GOP формата : M=3, N=12
Структура изображения : Frame
Идентификатор кодека : V_MPEG2
Идентификатор кодека/Информация : MPEG 1 or 2 Video
Продолжительность : 1 h 27 min
Вид битрейта : Variable
Битрейт : 3 991 kb/s
Максимальный битрейт : 8 000 kb/s
Ширина : 720 pixels
Высота : 576 pixels
Соотношение сторон : 4:3
Режим частоты кадров : Constant
Частота кадров : 25.000 FPS
Стандарт вещания : PAL
Цветовое пространство : YUV
Субдискретизация насыщенности : 4:2:0
Битовая глубина : 8 bits
Тип развёртки : Interlaced
Порядок развёртки : Top Field First
Метод сжатия : Lossy
Бит/(Пиксели*Кадры) : 0.385
Временной код первого кадра : 05:11:41:04
Оригинал временного кода : Group of pictures header
GOP, открыто/закрыто : Open
GOP, открыто/закрыто на первом кадре : Closed
Размер потока : 2.43 GiB (90%)
Язык : English
Default : No
Forced : No
Audio #1
Идентификатор : 2
Формат : AC-3
Формат/Информация : Audio Coding 3
Коммерческое название : Dolby Digital
Идентификатор кодека : A_AC3
Продолжительность : 1 h 27 min
Вид битрейта : Constant
Битрейт : 192 kb/s
Каналы : 2 channels
Channel layout : L R
Частота : 48.0 kHz
Частота кадров : 31.250 FPS (1536 SPF)
Битовая глубина : 16 bits
Метод сжатия : Lossy
Размер потока : 120 MiB (4%)
Заголовок : VO
Язык : Russian
ServiceKind/String : Complete Main
Default : Yes
Forced : No
Audio #2
Идентификатор : 3
Формат : AC-3
Формат/Информация : Audio Coding 3
Коммерческое название : Dolby Digital
Идентификатор кодека : A_AC3
Продолжительность : 1 h 27 min
Вид битрейта : Constant
Битрейт : 224 kb/s
Каналы : 6 channels
Channel layout : L R C LFE Ls Rs
Частота : 48.0 kHz
Частота кадров : 31.250 FPS (1536 SPF)
Битовая глубина : 16 bits
Метод сжатия : Lossy
Размер потока : 140 MiB (5%)
Язык : English
ServiceKind/String : Complete Main
Default : No
Forced : No
Text
Идентификатор : 4
Формат : VobSub
Режим смешивания : zlib
Идентификатор кодека : S_VOBSUB
Идентификатор кодека/Информация : Picture based subtitle format used on DVDs
Продолжительность : 1 h 24 min
Битрейт : 3 741 b/s
ElementCount : 565
Размер потока : 2.25 MiB (0%)
Язык : Danish
Default : No
Forced : No
Menu
00:00:00.080 : en:Chapter 01
00:08:12.080 : en:Chapter 02
00:20:30.800 : en:Chapter 03
00:25:00.560 : en:Chapter 04
00:34:44.240 : en:Chapter 05
00:40:06.800 : en:Chapter 06
00:50:12.080 : en:Chapter 07
00:57:03.920 : en:Chapter 08
01:15:01.040 : en:Chapter 09

Скриншоты


Скриншоты меню

DVD-Rip (560x416 )Всем мои фильмам нужны сиды, так что не уходите с раздачи!A CultFilms™ Remux
[cybertorrent.net].t2708.torrent 
Торрент: Зарегистрирован [ 2019-05-11 16:35 ] · C9177AF20DA82B9890189F3AAC0E84C6CB074902

Скачать .torrent

Скачать

14 KB

Статус: проверено
Скачан: 0 раз
Размер: 2,68 GB
terms.php
Профиль ЛС
Показать сообщения:    

Текущее время: 12-Ноя 06:22

Часовой пояс: UTC ± 0



Вы не можете начинать темы
Вы не можете отвечать на сообщения
Вы не можете редактировать свои сообщения
Вы не можете удалять свои сообщения
Вы не можете голосовать в опросах
Вы не можете прикреплять файлы к сообщениям
Вы можете скачивать файлы