Статистика раздачи
Размер:  2,85 GB   |    Зарегистрирован:  6 месяцев 11 дней   |    Скачан:  0 раз

Полного источника не было: Никогда

 
     
 
 

serzh ®

Пол:
Не указан
Стаж:
8 месяцев 10 дней
Сообщений:
384

Неизбежность
Necessity
Страна: США
Жанр: драма, криминал
Год выпуска: 1988
Продолжительность: 01:32:44
Перевод: одноголосый закадровый
Оригинальная аудиодорожка: английская
Субтитры: датские-Режиссёр: Майкл Миллер / Michael Miller
В ролях: Лони Андерсон, Хэнк Бумерт, Диана Беллами, Роберта Каллахан, Майкл Коляр, Сьюзэн Миллс, Дженис Фуллер, Джон Херд, Шерман Ховард, Кэтрин Хауэлл, Джинн Дженсен, Harris Laskaway, Джеймс Нафтон, Дебора Прайор, John D. Sarviss, Лоурен Шэнэхэн, Пейдж Шэнэхэн, Peter Siteri, Ширли Спенглер, Лаура Элспет Спенсер-Описание: Фотомодель обнаруживает, что ее богатый муж — наркодилер. Она уходит от него, прихватив с собой только пару миллионов долларов его денег, но с ним остается их маленькая дочь. Девушка разрабатывает план похищения малышки. Тем временем, муж посылает киллера, чтобы найти и устранить ее.- -За звуковую дорожку большое спасибо ivanov.sport2015-Качество: DVDRemux
Формат: MKV
Видео: 720x576 (4:3) @ 768x576, MPEG-2 Video / 3983 kbps / 25,000 fps /
Аудио 1: AC3, 48 kHz, 2ch, 192.00 kbps: [RUS]
Аудио 2: AC3, 48 kHz, 6ch, 224.00 kbps: [ENG]
Формат субтитров: оригинал
Разбивка на главы: да

DVDInfo

Title: Necessity 1988
Size: 3.33 Gb ( 3 495 804,00 KBytes ) - DVD-5
Enabled regions: 1, 2, 3, 4, 5, 6, 7, 8
VTS_01 :
Play Length: 01:32:44
Video: PAL 4:3 (720x576) VBR
Audio:
English, AC3, 3/2 (L,C,R,SL,SR)+LFE ch, 224 kbps, Delay 0 mSec
Subtitles:
Dansk
VTS_02 :
Play Length: 00:01:42
Video: PAL 4:3 (720x576) VBR
Audio:
English (Dolby AC3, 6 ch)
VTS_03 :
Play Length: 00:02:13
Video: PAL 4:3 (720x576) VBR
Audio:
English (Dolby AC3, 6 ch)
VTS_04 :
Play Length: 00:01:53
Video: PAL 4:3 (720x576) VBR
Audio:
English (Dolby AC3, 6 ch)
VTS_05 :
Play Length: 00:01:59
Video: PAL 4:3 (720x576) VBR
Audio:
English (Dolby AC3, 6 ch)
VTS_06 :
Play Length: 00:02:17
Video: PAL 4:3 (720x576) VBR
Audio:
English (Dolby AC3, 6 ch)
VTS_07 :
Play Length: 00:02:12
Video: PAL 4:3 (720x576) VBR
Audio:
English (Dolby AC3, 6 ch)
VTS_08 :
Play Length: 00:02:02
Video: PAL 4:3 (720x576) VBR
Audio:
English (Dolby AC3, 6 ch)
VTS_09 :
Play Length: 00:02:44
Video: PAL 4:3 (720x576) VBR
Audio:
English (Dolby AC3, 6 ch)
* Menus Information *
VIDEO_TS Menu
Video:
PAL 4:3 (720x576) VBR
English Language Unit :
Title Menu
VTS_01 Menu
Video:
PAL 4:3 (720x576) VBR
English Language Unit :
Root Menu
VTS_02 Menu
Video:
PAL 4:3 (720x576) VBR
English Language Unit :
Root Menu
VTS_03 Menu
Video:
PAL 4:3 (720x576) VBR
English Language Unit :
Root Menu
VTS_04 Menu
Video:
PAL 4:3 (720x576) VBR
English Language Unit :
Root Menu
VTS_05 Menu
Video:
PAL 4:3 (720x576) VBR
English Language Unit :
Root Menu
VTS_06 Menu
Video:
PAL 4:3 (720x576) VBR
English Language Unit :
Root Menu
VTS_07 Menu
Video:
PAL 4:3 (720x576) VBR
English Language Unit :
Root Menu
VTS_08 Menu
Video:
PAL 4:3 (720x576) VBR
English Language Unit :
Root Menu
VTS_09 Menu
Video:
PAL 4:3 (720x576) VBR
English Language Unit :
Root Menu

MediaInfo

Общее
Уникальный идентификатор : 328219536554811157846005919005634931427 (0xF6ECC88B7C4F8D5F95D7E879B3E32AE3)
Полное имя : D:\Ремуксы\[AORE] Cult Films Remuxes\Necessity 1988\Necessity 1988.mkv
Формат : Matroska
Версия формата : Version 4
Размер файла : 2,85 Гбайт
Продолжительность : 1 ч. 32 м.
Режим общего битрейта : Переменный
Общий поток : 4403 Кбит/сек
Дата кодирования : UTC 2019-04-17 09:41:24
Программа кодирования : mkvmerge v33.1.0 ('Primrose') 64-bit
Библиотека кодирования : libebml v1.3.7 + libmatroska v1.5.0
Видео
Идентификатор : 1
Формат : MPEG Video
Версия формата : Version 2
Профиль формата : Main@Main
Настройки формата : CustomMatrix / BVOP
Параметр BVOP формата : Да
Параметр матрицы формата : Выборочная
Параметр GOP формата : M=3, N=12
Структура изображения : Frame
Идентификатор кодека : V_MPEG2
Идентификатор кодека/Информация : MPEG 1 or 2 Video
Продолжительность : 1 ч. 32 м.
Вид битрейта : Переменный
Битрейт : 3983 Кбит/сек
Максимальный битрейт : 8000 Кбит/сек
Ширина : 720 пикселей
Высота : 576 пикселей
Соотношение сторон : 4:3
Режим частоты кадров : Постоянный
Частота кадров : 25,000 кадров/сек
Стандарт вещания : PAL
Цветовое пространство : YUV
Субдискретизация насыщенности : 4:2:0
Битовая глубина : 8 бит
Тип развёртки : Чересстрочная
Порядок развёртки : Верхнее поле первое
Метод сжатия : С потерями
Бит/(Пиксели*Кадры) : 0.384
Временной код первого кадра : 00:05:09:01
Оригинал временного кода : Group of pictures header
GOP, открыто/закрыто : Открыто
GOP, открыто/закрыто на первом кадре : Закрыто
Размер потока : 2,58 Гбайт (90%)
Язык : English
Default : Нет
Forced : Нет
Аудио #1
Идентификатор : 2
Формат : AC-3
Формат/Информация : Audio Coding 3
Коммерческое название : Dolby Digital
Идентификатор кодека : A_AC3
Продолжительность : 1 ч. 32 м.
Вид битрейта : Постоянный
Битрейт : 192 Кбит/сек
Каналы : 2 канала
Channel layout : L R
Частота : 48,0 КГц
Частота кадров : 31,250 кадров/сек (1536 SPF)
Битовая глубина : 16 бит
Метод сжатия : С потерями
Размер потока : 127 Мбайт (4%)
Заголовок : MVO
Язык : Russian
ServiceKind/String : Complete Main
Default : Да
Forced : Нет
Аудио #2
Идентификатор : 3
Формат : AC-3
Формат/Информация : Audio Coding 3
Коммерческое название : Dolby Digital
Идентификатор кодека : A_AC3
Продолжительность : 1 ч. 32 м.
Вид битрейта : Постоянный
Битрейт : 224 Кбит/сек
Каналы : 6 каналов
Channel layout : L R C LFE Ls Rs
Частота : 48,0 КГц
Частота кадров : 31,250 кадров/сек (1536 SPF)
Битовая глубина : 16 бит
Метод сжатия : С потерями
Размер потока : 149 Мбайт (5%)
Язык : English
ServiceKind/String : Complete Main
Default : Нет
Forced : Нет
Текст
Идентификатор : 4
Формат : VobSub
Режим смешивания : zlib
Идентификатор кодека : S_VOBSUB
Идентификатор кодека/Информация : Picture based subtitle format used on DVDs
Продолжительность : 1 ч. 29 м.
Битрейт : 3311 бит/сек
ElementCount : 534
Размер потока : 2,11 Мбайт (0%)
Язык : Danish
Default : Нет
Forced : Нет
Меню
00:00:00.080 : en:Chapter 01
00:02:44.240 : en:Chapter 02
00:09:01.040 : en:Chapter 03
00:25:25.040 : en:Chapter 04
00:31:20.240 : en:Chapter 05
00:36:17.360 : en:Chapter 06
00:41:38.480 : en:Chapter 07
00:57:14.000 : en:Chapter 08
01:21:24.080 : en:Chapter 09

Скриншоты

Скриншоты меню

DVD-RipВсем мои фильмам нужны сиды, так что не уходите с раздачи!A CultFilms™ Remux
[cybertorrent.net].t2707.torrent 
Торрент: Зарегистрирован [ 2019-05-11 16:35 ] · 7FA48ADDC89B6701BEDBB04501BC65829D87779A

Скачать .torrent

Скачать

15 KB

Статус: проверено
Скачан: 0 раз
Размер: 2,85 GB
terms.php
Профиль [ЛС]
Показать сообщения:    

Текущее время: 23-Ноя 02:15

Часовой пояс: UTC ± 0



Вы не можете начинать темы
Вы не можете отвечать на сообщения
Вы не можете редактировать свои сообщения
Вы не можете удалять свои сообщения
Вы не можете голосовать в опросах
Вы не можете прикреплять файлы к сообщениям
Вы можете скачивать файлы