Статистика раздачи
Размер:  3,5 GB   |    Зарегистрирован:  6 месяцев 9 дней   |    Скачан:  0 раз

Полного источника не было: Никогда

 
     
 
 

serzh ®

Пол:
Не указан
Стаж:
8 месяцев 8 дней
Сообщений:
384

Грести по ветру
Rowing With The Wind / Remando al viento
Страна: Испания
Жанр: драма
Год выпуска: 1988
Продолжительность: 01:34:42
Перевод: любительский (многоголосый, закадровый)
Оригинальная аудиодорожка: английская
Субтитры: русские, английские, английские для слабослышащих-Режиссёр: Хосе Жакосте/Jose Jacoste
В ролях: Хью Грант, Лиззи Маккинерни, Валентайн Пелка, Элизабет Херли, Варджиния Маташ, Хосе Луис Гомес, Ронан Виберт-Описание: Летом 1816 года поэт Перси Шелли, его супруга Мэри и её сводная сестра Клэр навещают лорда Джорджа Гордона Байрона в его поместье на Женевском озере. Именно знаменитый поэт-романтик подталкивает Мэри к написанию «Франкенштейна», произведению, благодаря которому Шелли увековечила свое имя в рядах классиков английской литературы. Фильм о любви, поэзии, эгоизме, преданности. Мистически, написанный Мэри Франкенштейн является героям фильма, являясь предвестником их смерти.- -Перевод: bankolya, alex2000, VeraM
Озвучивание: Stalk, veratem, Tofsla, bankolya
Сведение звука: Stalk-Качество: DVDRemux
Формат: MKV
Видео: 720x480 (4:3) @ 640x480, MPEG-2 Video / 4893 kbps / 29,970 fps /
Аудио 1: AC3, 48 kHz, 2ch, 192.00 kbps: [RUS]
Аудио 3: AC3, 48 kHz, 2ch, 192.00 kbps: [ENG]
Формат субтитров: srt и оригинал
Разбивка на главы: да

DVDInfo

Title: Rowing with the Wind (1988)
Size: 3.48 Gb ( 3 643 978,00 KBytes ) - DVD-5
Enabled regions: 1, 2, 3, 4, 5, 6, 7, 8
VTS_01 :
Play Length: 00:00:48
Video: NTSC 4:3 (720x480) VBR
Audio:
English (Dolby AC3, 2 ch)
VTS_02 :
Play Length: 01:34:37
Video: NTSC 4:3 (720x480) VBR
Audio:
English, AC3, 2/0 (L,R) ch, 192 kbps, Delay 0 mSec
Subtitles:
English
* Menus Information *
VIDEO_TS Menu
Video:
NTSC 4:3 (720x480) VBR
English Language Unit :
Title Menu
VTS_01 Menu
Video:
NTSC 4:3 (720x480) VBR
English Language Unit :
Root Menu
VTS_02 Menu
Video:
NTSC 4:3 (720x480) VBR
English Language Unit :
Root Menu

MediaInfo

Общее
Уникальный идентификатор : 133290009225000476194002819745235259704 (0x6446B8D558AE9A7DE9036C020C62D138)
Полное имя : D:\Ремуксы\[AORE] Cult Films Remuxes\Rowing with the Wind (1988)\Rowing With The Wind (1988).mkv
Формат : Matroska
Версия формата : Version 4
Размер файла : 3,50 Гбайт
Продолжительность : 1 ч. 34 м.
Режим общего битрейта : Переменный
Общий поток : 5282 Кбит/сек
Дата кодирования : UTC 2019-04-17 09:03:05
Программа кодирования : mkvmerge v33.1.0 ('Primrose') 64-bit
Библиотека кодирования : libebml v1.3.7 + libmatroska v1.5.0
Видео
Идентификатор : 1
Формат : MPEG Video
Версия формата : Version 2
Профиль формата : Main@Main
Настройки формата : CustomMatrix / BVOP
Параметр BVOP формата : Да
Параметр матрицы формата : Выборочная
Параметр GOP формата : M=3, N=12
Идентификатор кодека : V_MPEG2
Идентификатор кодека/Информация : MPEG 1 or 2 Video
Продолжительность : 1 ч. 34 м.
Вид битрейта : Переменный
Битрейт : 4893 Кбит/сек
Ширина : 720 пикселей
Высота : 480 пикселей
Соотношение сторон : 4:3
Режим частоты кадров : Переменный
Частота кадров : 23,976 (23976/1000) кадра/сек
Частота кадров в оригинале : 29,970 (30000/1001) кадров/сек
Цветовое пространство : YUV
Субдискретизация насыщенности : 4:2:0
Битовая глубина : 8 бит
Метод сжатия : С потерями
Бит/(Пиксели*Кадры) : 0.591
Размер потока : 3,24 Гбайт (93%)
Язык : English
Default : Нет
Forced : Нет
Аудио #1
Идентификатор : 2
Формат : AC-3
Формат/Информация : Audio Coding 3
Коммерческое название : Dolby Digital
Идентификатор кодека : A_AC3
Продолжительность : 1 ч. 34 м.
Вид битрейта : Постоянный
Битрейт : 192 Кбит/сек
Каналы : 2 канала
Channel layout : L R
Частота : 48,0 КГц
Частота кадров : 31,250 кадров/сек (1536 SPF)
Битовая глубина : 16 бит
Метод сжатия : С потерями
Размер потока : 130 Мбайт (4%)
Заголовок : MVO
Язык : Russian
ServiceKind/String : Complete Main
Default : Да
Forced : Нет
Аудио #2
Идентификатор : 3
Формат : AC-3
Формат/Информация : Audio Coding 3
Коммерческое название : Dolby Digital
Идентификатор кодека : A_AC3
Продолжительность : 1 ч. 34 м.
Вид битрейта : Постоянный
Битрейт : 192 Кбит/сек
Каналы : 2 канала
Channel layout : L R
Частота : 48,0 КГц
Частота кадров : 31,250 кадров/сек (1536 SPF)
Битовая глубина : 16 бит
Метод сжатия : С потерями
Размер потока : 130 Мбайт (4%)
Язык : English
ServiceKind/String : Complete Main
Default : Нет
Forced : Нет
Текст #1
Идентификатор : 4
Формат : UTF-8
Идентификатор кодека : S_TEXT/UTF8
Идентификатор кодека/Информация : UTF-8 Plain Text
Продолжительность : 1 ч. 32 м.
Битрейт : 101 бит/сек
ElementCount : 1072
Размер потока : 69,0 Кбайт (0%)
Язык : Russian
Default : Нет
Forced : Нет
Текст #2
Идентификатор : 5
Формат : UTF-8
Идентификатор кодека : S_TEXT/UTF8
Идентификатор кодека/Информация : UTF-8 Plain Text
Продолжительность : 1 ч. 32 м.
Битрейт : 108 бит/сек
ElementCount : 1046
Размер потока : 73,8 Кбайт (0%)
Язык : English
Default : Нет
Forced : Нет
Текст #3
Идентификатор : 6
Формат : VobSub
Режим смешивания : zlib
Идентификатор кодека : S_VOBSUB
Идентификатор кодека/Информация : Picture based subtitle format used on DVDs
Продолжительность : 1 ч. 32 м.
Битрейт : 4508 бит/сек
ElementCount : 1048
Размер потока : 2,98 Мбайт (0%)
Язык : English
Default : Нет
Forced : Нет
Меню
00:00:00.000 : en:Chapter 01
00:10:00.600 : en:Chapter 02
00:14:52.107 : en:Chapter 03
00:20:14.930 : en:Chapter 04
00:28:21.032 : en:Chapter 05
00:35:07.488 : en:Chapter 06
00:44:05.526 : en:Chapter 07
00:46:44.184 : en:Chapter 08
00:54:10.630 : en:Chapter 09
01:01:27.433 : en:Chapter 10
01:06:01.707 : en:Chapter 11
01:10:43.989 : en:Chapter 12
01:17:46.912 : en:Chapter 13
01:23:26.751 : en:Chapter 14
01:33:12.336 : en:Chapter 15

Скриншоты

DVD-Rip (672x368 )Всем мои фильмам нужны сиды, так что не уходите с раздачи!A CultFilms™ Remux
[cybertorrent.net].t2706.torrent 
Торрент: Зарегистрирован [ 2019-05-11 16:35 ] · D8981385362E4CA6A0E81E45DBD372C8B8C5ADB5

Скачать .torrent

Скачать

18 KB

Статус: проверено
Скачан: 0 раз
Размер: 3,5 GB
terms.php
Профиль [ЛС]
Показать сообщения:    

Текущее время: 21-Ноя 09:24

Часовой пояс: UTC ± 0



Вы не можете начинать темы
Вы не можете отвечать на сообщения
Вы не можете редактировать свои сообщения
Вы не можете удалять свои сообщения
Вы не можете голосовать в опросах
Вы не можете прикреплять файлы к сообщениям
Вы можете скачивать файлы