Статистика раздачи
Размер:  2,55 GB   |    Зарегистрирован:  6 месяцев 6 дней   |    Скачан:  0 раз
Сидов:  182  [  0 KB/s  ]   Личеров:  9  [  0 KB/s  ]  
 
     
 
 

Гость ®

Пол:
Не указан

Подлежит уничтожению
Год выпуска: 2019
Производство: Россия, ООО «ПРО ТВ», АО «ВайТ Медиа» по заказу АО «Телекомпания НТВ»
Жанр: Военный, детектив, драма, шпионский фильм
Продолжительность: 4 х ~ 00:45:00
Субтитры: Отсутствуют
Режиссёр: Виталий Ващенко
В ролях: Александр Яцко, Дмитрий Шевченко, Антон Батырев, Алина Сергеева, Анна Сагайдачная, Сергей Фролов (II), Сергей Комаровский, Борис Георгиевский, Сергей Деревянко, Константин Октябрьский, Александр Ромашко
Описание: Июль 1941 года. Немцы рвутся к Москве. В ставке Верховного Главнокомандующего принимают решение применить новое секретное оружие — радиоуправляемые фугасы. Специальные группы саперов минируют дома, вокзалы, заводы. Немцы несут большие потери. Гитлер приказывает любым путем заполучить русскую мину и обезвредить ее. Оперативники НКВД, арестовав одного из засланных немецких агентов, узнают о планах нацистов. Поддержку диверсантам оказывает и вермахт, который начинает наступление именно на этом участке фронта. Но главное — на заводе-изготовителе действует шпион, который помогает немцам, и найти его и обезвредить нужно как можно быстрее.
Реклама: Отсутствует
Качество: SATRip
Формат: AVI
Видео кодек: XviD
Аудио кодек: MP3
Видео: XviD, 720x400, ~ 1700 Кбит/с, 0.236 bit/pixel
Аудио: МР3, 2 ch, 192 Кбит/с

MediaInfo

Общее
Полное имя : D:\Подлежит.Уничтожению.XviD.2019.SATRp.7turza\01.Подлежит.Уничтожению.7turza.avi
Формат : AVI
Формат/Информация : Audio Video Interleave
Размер файла : 609 Мбайт
Продолжительность : 44 м. 44 с.
Общий поток : 1902 Кбит/сек
Программа кодирования : Lavf58.20.100
Библиотека кодирования : VirtualDub build 35576/release
Видео
Идентификатор : 0
Формат : MPEG-4 Visual
Профиль формата : Advanced Simple@L5
Настройки формата : BVOP1
Параметр BVOP формата : 1
Параметр QPel формата : Нет
Параметр GMC формата : Без точки перехода
Параметр матрицы формата : Default (H.263)
Идентификатор кодека : XVID
Идентификатор кодека/Подсказка : XviD
Продолжительность : 44 м. 44 с.
Битрейт : 1697 Кбит/сек
Ширина : 720 пикселей
Высота : 400 пикселей
Соотношение сторон : 1,85:1
Частота кадров : 25,000 кадров/сек
Цветовое пространство : YUV
Субдискретизация насыщенности : 4:2:0
Битовая глубина : 8 бит
Тип развёртки : Прогрессивная
Бит/(Пиксели*Кадры) : 0.236
Размер потока : 543 Мбайт (89%)
Библиотека кодирования : XviD 67
Аудио
Идентификатор : 1
Формат : MPEG Audio
Версия формата : Version 1
Профиль формата : Layer 3
Настройки формата : Joint stereo / MS Stereo
Идентификатор кодека : 55
Идентификатор кодека/Подсказка : MP3
Продолжительность : 44 м. 44 с.
Вид битрейта : Постоянный
Битрейт : 192 Кбит/сек
Каналы : 2 канала
Частота : 48,0 КГц
Размер потока : 61,4 Мбайт (10%)

Скриншоты

Предыдущие и альтернативные раздачи
[cybertorrent.net].t2701.torrent 
Торрент: Зарегистрирован [ 2019-05-10 16:13 ] · CA1FDD112CF158FF7FB4AD5A024C6FE0DC083884

Скачать .torrent

Скачать

14 KB

Статус: проверено
Скачан: 0 раз
Размер: 2,55 GB
terms.php
Показать сообщения:    

Текущее время: 17-Ноя 16:06

Часовой пояс: UTC ± 0



Вы не можете начинать темы
Вы не можете отвечать на сообщения
Вы не можете редактировать свои сообщения
Вы не можете удалять свои сообщения
Вы не можете голосовать в опросах
Вы не можете прикреплять файлы к сообщениям
Вы можете скачивать файлы