Статистика раздачи
Размер:  3,33 GB   |    Зарегистрирован:  7 месяцев 4 дня   |    Скачан:  0 раз

Полного источника не было: Никогда

 
     
 
 

солнышко ®

Пол:
Не указан
Стаж:
9 месяцев 2 дня
Сообщений:
565

Смерть Сталина / The Death of StalinГод выпуска: 2017
Страна: Франция, Великобритания, Бельгия
Жанр: политическая сатира
Продолжительность: 01:46:34
Перевод:
- профессиональный (дублированный) Megogo
- авторский (одноголосый) Ю. Сербин
Субтитры: русские, английские
Режиссер: Армандо Ианнуччи / Armando Iannucci
В ролях: Стив Бушеми, Саймон Расселл Бил, Пэдди Консидайн, Руперт Френд, Джейсон Айзекс, Майкл Пэйлин, Андреа Райзборо, Джеффри Тэмбор, Адриан Маклафлин, Ольга Куриленко
Описание: СССР, 1953 год. Страна трепещет от страха перед одним человеком. 5 марта Генсек умер. Когда уходит великий вождь, наступает время борьбы за власть. Гонка началась!
Рейтинг MPAA: -Доп. информация:
IMDb: 7.2/10
Kinopoisk: 6.735/10
Sample

Награды и номинации

Британская академия, 2018 год
Номинации (2):
* Лучший адаптированный сценарий
* Премия имени Александра Корды за самый выдающийся британский фильм года
Европейская киноакадемия, 2018 год
Победитель (1):
* Лучшая комедия

Интересные факты о фильме

  • Речь в фильме идёт об авиакатастрофе в Свердловске, в которой погибла хоккейная команда ВВС Московского военного округа. Надо только заметить, что произошла эта трагедия в 1950 году, то есть за три года до смерти Иосифа Сталина.
  • Армандо Ианнуччи не хотел, чтобы актёры разговаривали с русским акцентом, потому что это могло отпугнуть зрителей, а мысли об акценте помешали бы актёрам импровизировать на съёмочной площадке.
  • Фильм снимался в Москве, Киеве, Лондоне и Оксфордшире. Россию 50-х годов решили воссоздать в Лондоне. Интерьерные сцены снимались в Великобритании. Продюсеры договорились о съёмках в нескольких лондонских локациях, в частности съёмки велись в ратуше Шордича, во Фримэйсонс Холле в Ковент-Гардене, в Голдсмитс-Холле и в ратуше Хаммерсмита на западе Лондона. Колонный зал Дома Союзов заменил Мэншн Хаус в лондонском Сити. Загородную резиденцию Сталина Касали и её команде пришлось выстроить в лесу неподалёку от студии Pinewood.
  • Фильм снят на основе комиксов художников Фабьен Нури и Тьерри Робин «Смерть Сталина» о тех невероятных, но правдивых событиях. Также есть продолжение — «Часть вторая – похороны». Французские продюсеры Ян Зеноу и Лоран Зэйтун выкупили у художников права на экранизацию комиксов и предложили взяться за необычный проект режиссёру Армандо Ианнуччи.
Качество: BDRip-AVC
Формат: MKV
Видео: H.264, 1152x624 (1.85:1), 3383 kbps, 24 fps
Аудио №1: Russian, AC3, 2ch, 48 kHz, 192 kbps (Дубляж)
Аудио №2: Russian, AC3, 6ch, 48 kHz, 448 kbps (Одноголосый, Сербин)
Аудио №3: English, AC3, 6ch, 48 kHz, 448 kbps (Оригинал)
Субтитры №1: Russian, SRT
Субтитры №2: Russian, SRT, Focs
Субтитры №3: Russian, SRT, PhysKids
Субтитры №4: English, SRT-

Сравнение с исходником

Blu-ray......................................................Рип



Mediainfo

Format : Matroska
Format version : Version 4
File size : 3.33 GiB
Duration : 1 h 46 min
Overall bit rate : 4 475 kb/s
Movie name : The Death of Stalin (2017) BDRip
Encoded date : UTC 2019-05-10 08:30:55
Writing application : mkvmerge v33.1.0 ('Primrose') 64-bit
Writing library : libebml v1.3.7 + libmatroska v1.5.0
Cover : Yes
Attachments : Cover.jpg
Video
ID : 1
Format : AVC
Format/Info : Advanced Video Codec
Format profile : High@L4.1
Format settings : CABAC / 11 Ref Frames
Format settings, CABAC : Yes
Format settings, ReFrames : 11 frames
Codec ID : V_MPEG4/ISO/AVC
Duration : 1 h 46 min
Bit rate : 3 383 kb/s
Width : 1 152 pixels
Height : 624 pixels
Display aspect ratio : 1.85:1
Frame rate mode : Constant
Frame rate : 24.000 FPS
Color space : YUV
Chroma subsampling : 4:2:0
Bit depth : 8 bits
Scan type : Progressive
Bits/(Pixel*Frame) : 0.196
Stream size : 2.52 GiB (76%)
Writing library : x264 core 157 r2969 d4099dd
Encoding settings : cabac=1 / ref=11 / deblock=1:-3:-2 / analyse=0x3:0x133 / me=tesa / subme=11 / psy=1 / psy_rd=1.10:0.05 / mixed_ref=1 / me_range=32 / chroma_me=1 / trellis=2 / 8x8dct=1 / cqm=0 / deadzone=21,11 / fast_pskip=0 / chroma_qp_offset=-3 / threads=18 / lookahead_threads=4 / sliced_threads=0 / nr=0 / decimate=1 / interlaced=0 / bluray_compat=0 / constrained_intra=0 / bframes=16 / b_pyramid=2 / b_adapt=2 / b_bias=0 / direct=1 / weightb=1 / open_gop=0 / weightp=2 / keyint=250 / keyint_min=24 / scenecut=40 / intra_refresh=0 / rc_lookahead=40 / rc=crf / mbtree=0 / crf=17.5 / qcomp=0.65 / qpmin=0 / qpmax=69 / qpstep=4 / vbv_maxrate=62500 / vbv_bufsize=78125 / crf_max=0.0 / nal_hrd=none / filler=0 / ip_ratio=1.40 / pb_ratio=1.30 / aq=2:0.90
Language : English
Default : Yes
Forced : No
Color range : Limited
Matrix coefficients : BT.709
Audio #1
ID : 2
Format : AC-3
Format/Info : Audio Coding 3
Commercial name : Dolby Digital
Codec ID : A_AC3
Duration : 1 h 46 min
Bit rate mode : Constant
Bit rate : 192 kb/s
Channel(s) : 2 channels
Channel layout : L R
Sampling rate : 48.0 kHz
Frame rate : 31.250 FPS (1536 SPF)
Bit depth : 16 bits
Compression mode : Lossy
Stream size : 146 MiB (4%)
Title : Dub
Language : Russian
Service kind : Complete Main
Default : Yes
Forced : No
Audio #2
ID : 3
Format : AC-3
Format/Info : Audio Coding 3
Commercial name : Dolby Digital
Codec ID : A_AC3
Duration : 1 h 46 min
Bit rate mode : Constant
Bit rate : 448 kb/s
Channel(s) : 6 channels
Channel layout : L R C LFE Ls Rs
Sampling rate : 48.0 kHz
Frame rate : 31.250 FPS (1536 SPF)
Bit depth : 16 bits
Compression mode : Lossy
Stream size : 342 MiB (10%)
Title : AVO, Serbin
Language : Russian
Service kind : Complete Main
Default : No
Forced : No
Audio #3
ID : 4
Format : AC-3
Format/Info : Audio Coding 3
Commercial name : Dolby Digital
Codec ID : A_AC3
Duration : 1 h 46 min
Bit rate mode : Constant
Bit rate : 448 kb/s
Channel(s) : 6 channels
Channel layout : L R C LFE Ls Rs
Sampling rate : 48.0 kHz
Frame rate : 31.250 FPS (1536 SPF)
Bit depth : 16 bits
Compression mode : Lossy
Stream size : 342 MiB (10%)
Title : Original
Language : English
Service kind : Complete Main
Default : No
Forced : No
Text #1
ID : 5
Format : UTF-8
Codec ID : S_TEXT/UTF8
Codec ID/Info : UTF-8 Plain Text
Duration : 1 h 38 min
Bit rate : 138 b/s
Count of elements : 1713
Stream size : 100 KiB (0%)
Language : Russian
Default : No
Forced : No
Text #2
ID : 6
Format : UTF-8
Codec ID : S_TEXT/UTF8
Codec ID/Info : UTF-8 Plain Text
Duration : 1 h 38 min
Bit rate : 140 b/s
Count of elements : 1718
Stream size : 101 KiB (0%)
Title : Focs
Language : Russian
Default : No
Forced : No
Text #3
ID : 7
Format : UTF-8
Codec ID : S_TEXT/UTF8
Codec ID/Info : UTF-8 Plain Text
Duration : 1 h 38 min
Bit rate : 142 b/s
Count of elements : 1711
Stream size : 103 KiB (0%)
Title : PhysKids
Language : Russian
Default : No
Forced : No
Text #4
ID : 8
Format : UTF-8
Codec ID : S_TEXT/UTF8
Codec ID/Info : UTF-8 Plain Text
Duration : 1 h 36 min
Bit rate : 85 b/s
Count of elements : 1706
Stream size : 60.6 KiB (0%)
Language : English
Default : No
Forced : No
Menu
00:00:00.000 : en:01
00:06:38.875 : en:02
00:13:02.583 : en:03
00:19:53.125 : en:04
00:29:06.125 : en:05
00:33:58.250 : en:06
00:40:22.417 : en:07
00:45:28.000 : en:08
00:50:35.000 : en:09
00:58:40.750 : en:10
01:03:23.667 : en:11
01:12:31.750 : en:12
01:17:42.917 : en:13
01:24:49.000 : en:14
01:33:33.708 : en:15
01:39:25.583 : en:16

x264 log

x264 [info]: frame I:1078 Avg QP:15.66 size: 92071
x264 [info]: frame P:34109 Avg QP:17.20 size: 36411
x264 [info]: frame B:118281 Avg QP:19.64 size: 11526
x264 [info]: consecutive B-frames: 2.2% 3.2% 9.0% 20.2% 17.2% 39.0% 4.5% 0.8% 1.2% 0.7% 0.5% 0.4% 0.3% 0.2% 0.2% 0.0% 0.2%
x264 [info]: mb I I16..4: 5.1% 79.1% 15.8%
x264 [info]: mb P I16..4: 0.7% 11.9% 1.0% P16..4: 29.7% 34.7% 14.2% 2.4% 0.2% skip: 5.2%
x264 [info]: mb B I16..4: 0.1% 0.6% 0.1% B16..8: 36.3% 21.6% 3.7% direct: 5.5% skip:32.1% L0:44.4% L1:44.5% BI:11.0%
x264 [info]: 8x8 transform intra:85.8% inter:62.4%
x264 [info]: coded y,uvDC,uvAC intra: 89.9% 83.4% 67.1% inter: 27.3% 19.6% 4.3%
x264 [info]: i16 v,h,dc,p: 25% 13% 6% 56%
x264 [info]: i8 v,h,dc,ddl,ddr,vr,hd,vl,hu: 9% 7% 7% 10% 14% 14% 13% 12% 13%
x264 [info]: i4 v,h,dc,ddl,ddr,vr,hd,vl,hu: 12% 8% 6% 9% 16% 15% 13% 11% 11%
x264 [info]: i8c dc,h,v,p: 45% 23% 17% 15%
x264 [info]: Weighted P-Frames: Y:2.8% UV:1.5%
x264 [info]: ref P L0: 49.1% 10.6% 15.9% 5.8% 4.9% 3.5% 3.3% 2.2% 1.9% 1.4% 1.4% 0.1% 0.0%
x264 [info]: ref B L0: 78.8% 9.3% 4.3% 2.0% 1.5% 1.2% 1.2% 0.7% 0.8% 0.2%
x264 [info]: ref B L1: 95.6% 4.4%
x264 [info]: kb/s:3383.48
encoded 153468 frames, 5.90 fps, 3383.48 kb/s
-

Скриншоты


[cybertorrent.net].t2698.torrent 
Торрент: Зарегистрирован [ 2019-05-10 16:13 ] · D495665CE1E41D1E02726F75A72FB902AEAAC3F9

Скачать .torrent

Скачать

17 KB

Статус: проверено
Скачан: 0 раз
Размер: 3,33 GB
terms.php
Профиль [ЛС]
Показать сообщения:    

Текущее время: 14-Дек 22:26

Часовой пояс: UTC ± 0



Вы не можете начинать темы
Вы не можете отвечать на сообщения
Вы не можете редактировать свои сообщения
Вы не можете удалять свои сообщения
Вы не можете голосовать в опросах
Вы не можете прикреплять файлы к сообщениям
Вы можете скачивать файлы