Статистика раздачи
Размер:  9,56 GB   |    Зарегистрирован:  6 месяцев 3 дня   |    Скачан:  0 раз
Сидов:  46  [  0 KB/s  ]   Личеров:  4  [  0 KB/s  ]  
 
     
 
 

Гость ®

Пол:
Не указан

Прыжок Богомола
Год выпуска: 2019
Производство: Кинокомпания «ГРИФОН», Кинокомпания «Калейдоскоп фильм»
Жанр: военный, мелодрама, шпионский
Продолжительность: ~00:44:00 серия
Субтитры: нет
Режиссёр: Владимир Балкашинов
В ролях: Павел Чинарёв, Татьяна Лялина, Александра Никифорова, Яков Шамшин, Сергей Степанченко, Виктор Супрун, Анатолий Лобоцкий, Дмитрий Брауэр, Владимир Капустин, Иван Лапин, Сергей Сосновский, Евгений Шириков, Владимир Терещенко, Константин Новиков, Алексей Ошурков, Александр Катин , Дмитрий Родонов, Илья Семёнов, Виктор Немец, Роман Синицын, Игорь Поселенов, Вячеслав Морозов, Илья Беляев, Александр Никольский
Описание: 1942 год. Управление особых отделов НКВД начинает операцию по выявлению агентов, заброшенных на советскую территорию из разведцентра абвера. По заданию командования офицер НКВД разведчик Константин Богомолов под маской уголовника проникает в разведцентр и становится там лучшим курсантом.Постоянные проверки и провокации зачастую ставят Богомолова на грань провала. И вот, когда успех уже близок, и личные дела шпионов уже почти в руках, гитлеровцы забрасывают Богомолова, уже как своего агента, на советскую территорию.Руководство НКДВ считает, что Богомолов перевербован, и арестовывает Богомолова и его командира – майора НКВД Маркелова. В последний момент Богомолов бежит. Теперь уже только он сам, в одиночку, без поддержки Большой Земли, должен выполнить задание и тем самым обелить себя и своего командира.

Реклама: Нет.
Кинопоиск
Все раздачи сериала
Sample
Качество: HDTV 1080i - daboen
Формат: TS
Видео кодек: AVC
Аудио кодек: MP2
Видео: MPEG4 AVC Video, H264, 16:9, 1920x1080, 25 fps, ~7080 kbps, 0.137 bit/pixel
Аудио: MP2, 2 ch, 192 kbps, 16 bits, 48.0 KHz

MI

General
ID : 1 (0x1)
Complete name : D:\Pryzhok.bogomola.2019.HDTV.1080i\Pryzhok.bogomola.01.2019.HDTV.1080i.ts
Format : MPEG-TS
File size : 4.74 GiB
Duration : 1 h 28 min
Overall bit rate mode : Variable
Overall bit rate : 7 649 kb/s
Video
ID : 2911 (0xB5F)
Menu ID : 1357 (0x54D)
Format : AVC
Format/Info : Advanced Video Codec
Format profile : High@L4
Format settings : CABAC / 4 Ref Frames
Format settings, CABAC : Yes
Format settings, ReFrames : 4 frames
Codec ID : 27
Duration : 1 h 28 min
Bit rate : 7 078 kb/s
Width : 1 920 pixels
Height : 1 080 pixels
Display aspect ratio : 16:9
Frame rate : 25.000 FPS
Color space : YUV
Chroma subsampling : 4:2:0
Bit depth : 8 bits
Scan type : MBAFF
Scan type, store method : Interleaved fields
Scan order : Top Field First
Bits/(Pixel*Frame) : 0.137
Stream size : 4.39 GiB (93%)
Audio
ID : 2912 (0xB60)
Menu ID : 1357 (0x54D)
Format : MPEG Audio
Format version : Version 1
Format profile : Layer 2
Codec ID : 3
Duration : 1 h 28 min
Bit rate mode : Constant
Bit rate : 192 kb/s
Channel(s) : 2 channels
Sampling rate : 48.0 kHz
Frame rate : 41.667 FPS (1152 SPF)
Compression mode : Lossy
Delay relative to video : -200 ms
Stream size : 122 MiB (3%)
Language : Russian

Скриншоты


[cybertorrent.net].t2687.torrent 
Торрент: Зарегистрирован [ 2019-05-10 16:13 ] · 108B7B48617E18698945E09304708E78B4D6C828

Скачать .torrent

Скачать

48 KB

Статус: проверено
Скачан: 0 раз
Размер: 9,56 GB
terms.php
Показать сообщения:    

Текущее время: 14-Ноя 04:06

Часовой пояс: UTC ± 0



Вы не можете начинать темы
Вы не можете отвечать на сообщения
Вы не можете редактировать свои сообщения
Вы не можете удалять свои сообщения
Вы не можете голосовать в опросах
Вы не можете прикреплять файлы к сообщениям
Вы можете скачивать файлы