Статистика раздачи
Размер:  4,65 GB   |    Зарегистрирован:  7 месяцев 1 день   |    Скачан:  0 раз
Сидов:  1  [  0 KB/s  ]  
 
     
 
 

Гость ®

Пол:
Не указан

Милые обманщицы: Перфекционистки / Pretty Little Liars: The Perfectionists
Год выпуска: 2019
Страна: США
Жанр: триллер, драма, мелодрама, криминал, детектив
Продолжительность: ~ 00:43:00
Перевод:Любительский (многоголосый закадровый)(TVShows)
Субтитры: нет
Режиссёр: Норман Бакли / Norman Buckley, Роджер Камбл / Roger Kumble, Элизабет Аллен / Elizabeth Allen
-В ролях:
Эли Браун, София Карсон, Хейли Эрин, Грэм Томас Кинг, Крис Мэйсон, Сидни Парк, Джанел Пэрриш, Саша Питерс, Келли Разерфорд, Эван Биттенкур
Описание:
Все в городке Бикон Хейтс - от престижного колледжа до суперуспешных резидентов - кажется идеальным. Но ничто в этом городе не является тем, чем кажется. Маниакальное стремление жителей быть безупречными приводит к убийству. Однако найти виновного в преступлении будет непросто - у каждого подозреваемого в этом деле есть масса секретов и прочное алиби.-Качество: WEBRip
Формат: AVI
Видео кодек: XviD
Видео: 720x400 (1.80:1), 23.976 fps, XviD build 73 ~2000 kbps avg, 0.29 bit/pixel
Аудио Rus: 48 kHz, AC3 Dolby Digital, 2/0 (L,R) ch, ~192 kbps
-Рип: Ruddle
Реклама отсутствует
- -Все раздачи сериала-

MI

Код:Общее
Полное имя : D:\Pretty Little Liars The Perfectionists Season 1 WEBRip\Pretty.Little.Liars.The.Perfectionists.s01e01.WEBRip.RGzsRutracker.avi
Формат : AVI
Формат/Информация : Audio Video Interleave
Размер файла : 686 Мбайт
Продолжительность : 43 м. 33 с.
Общий поток : 2201 Кбит/сек
Программа кодирования : VirtualDubMod 1.5.10.3 | www.virtualdub-fr.org || (build 2550/release)
Библиотека кодирования : VirtualDubMod build 2550/release
Видео
Идентификатор : 0
Формат : MPEG-4 Visual
Профиль формата : Advanced Simple@L5
Настройки формата : BVOP1
Параметр BVOP формата : 1
Параметр QPel формата : Нет
Параметр GMC формата : Без точки перехода
Параметр матрицы формата : Default (MPEG)
Идентификатор кодека : XVID
Идентификатор кодека/Подсказка : XviD
Продолжительность : 43 м. 33 с.
Битрейт : 2000 Кбит/сек
Ширина : 720 пикселей
Высота : 400 пикселей
Соотношение сторон : 16:9
Частота кадров : 23,976 (24000/1001) кадра/сек
Цветовое пространство : YUV
Субдискретизация насыщенности : 4:2:0
Битовая глубина : 8 бит
Тип развёртки : Прогрессивная
Метод сжатия : С потерями
Бит/(Пиксели*Кадры) : 0.290
Размер потока : 623 Мбайт (91%)
Библиотека кодирования : XviD 73
Аудио
Идентификатор : 1
Формат : AC-3
Формат/Информация : Audio Coding 3
Идентификатор кодека : 2000
Продолжительность : 43 м. 33 с.
Вид битрейта : Постоянный
Битрейт : 192 Кбит/сек
Каналы : 2 канала
Расположение каналов : Front: L R
Частота : 48,0 КГц
Частота кадров : 31,250 кадров/сек (1536 SPF)
Битовая глубина : 16 бит
Метод сжатия : С потерями
Размер потока : 59,8 Мбайт (9%)
Выравнивание : Разделение по промежуткам
Продолжительность промежутка : 42 мс. (1,00 видеокадр)
Время предзагрузки промежутка : 500 мс.
ServiceKind/String : Complete Main

Скриншоты

Внимание! Раздача ведётся путём добавления новых серий!

Внимание! Раздача ведётся путём добавления новых серий; при каждом добавлении создётся новый торрент. Чтобы начать докачку новой серии, пользователям необходимо сделать следующее: (1) остановить скачивание, (2) удалить старый торрент у себя из клиента (старые серии удалять не надо), (3) скачать новый торрент и запустить его у себя в клиенте вместо старого, при этом указать клиенту путь в старую папку куда и должно происходить скачивание новых серий.
Ваш клиент при этом должен произвести хеширование (проверку) старой папки (если не производит сам - помогите ему сделать это), и будет докачивать только те серии которых у вас ещё нет. Старые серии при этом не удаляются, а продолжают раздаваться!
Eсли вы уже удалили старые серии, то предотвратить повторную закачку старых серий можно, отжав галочку в соответсвующих местах при запуске нового торрента.
Как закачать отдельный файл из торрента или докачать ранее пропущенные файлы торрента!
Релиз группы:
[cybertorrent.net].t2685.torrent 
Торрент: Зарегистрирован [ 2019-05-10 16:13 ] · 2C5A3738D0FA7BA2FFDDD036B68B9C5956447C99

Скачать .torrent

Скачать

25 KB

Статус: проверено
Скачан: 0 раз
Размер: 4,65 GB
terms.php
Показать сообщения:    

Текущее время: 12-Дек 04:56

Часовой пояс: UTC ± 0



Вы не можете начинать темы
Вы не можете отвечать на сообщения
Вы не можете редактировать свои сообщения
Вы не можете удалять свои сообщения
Вы не можете голосовать в опросах
Вы не можете прикреплять файлы к сообщениям
Вы можете скачивать файлы