Статистика раздачи
Размер:  3,55 GB   |    Зарегистрирован:  6 месяцев 10 дней   |    Скачан:  0 раз

Полного источника не было: Никогда

 
     
 
 

Гость ®

Пол:
Не указан

Воин / Warrior- Год выпуска: 2019
Страна: США
Жанр: боевик, драма, история
Продолжительность: 01:00:00-Перевод: Профессиональный (многоголосый закадровый) - Lostfilm-Режиссёр: Лони Перистер, Лин Одинг, Дэвид Петрарка-В ролях: Джейсон Дж. Тобин, Эндрю Кодзи, Оливия Ченг, Киран Бью, Дайян Доан, Дин Джаггер III, Лэнгли Кирквуд, Перри Юнг, Райан Крюгер, Рич Тинг-Описание: Сериал основан на оригинальной идее Брюса Ли. В 1890-х годах город Сан-Франциско страдал от коррупции и мафии. В китайском квартале Сан-Франциско междоусобные войны достигли особого размаха. В это неспокойное время в город из Китая прибывает молодой мастер восточных единоборств А Сам (Ah Sahm). Молодой человек тут же оказывается втянутым в кровавые разборки между двумя опасными соперничающими друг с другом группировками Тонг в Чайнатауне. А Сам подвергает себя смертельной опасности, после того как план мести, который он готовил не один год, становится известен его враг.

Качество: WEB-DLRip
Формат: AVI
Видео: 720x400 (16:9), 23.976 fps, XviD, 1599 Kbps
Аудио 1: AC3, 48.0 KHz, 2 ch, 192 kbps [Rus]
Аудио 2: AC3, 48.0 KHz, 2 ch, 192 kbps [Eng]
Субтитры: Русские, Английские (SDH)-Реклама: Отсутствует-Предыдущие и альтернативные раздачи-

Релиз

Рип: Сибиряк777
Работа со звуком itunestv@eniahd

MediaInfo

General
Complete name : Downloads\Warrior.S01 LostFilm\Warrior.S01E01.WEB-DLRip.Rus.Eng.Lostfilm.avi
Format : AVI
Format/Info : Audio Video Interleave
File size : 870 MiB
Duration : 1h 0mn
Overall bit rate : 1 998 Kbps
Writing application : VirtualDubMod 1.5.10.2 (build 2540/release)
Video #0
ID : 0
Format : MPEG-4 Visual
Format profile : Advanced Simple@L5
Format settings, BVOP : 1
Format settings, QPel : No
Format settings, GMC : No warppoints
Format settings, Matrix : Default (MPEG)
Codec ID : XVID
Codec ID/Hint : XviD
Duration : 1h 0mn
Bit rate : 1 599 Kbps
Width : 720 pixels
Height : 400 pixels
Display aspect ratio : 16:9
Frame rate : 23.976 fps
Color space : YUV
Chroma subsampling : 4:2:0
Bit depth : 8 bits
Scan type : Progressive
Compression mode : Lossy
Bits/(Pixel*Frame) : 0.232
Stream size : 697 MiB (80%)
Writing library : XviD 67
Audio #1
ID : 1
Format : AC-3
Format/Info : Audio Coding 3
Mode extension : CM (complete main)
Format settings, Endianness : Big
Codec ID : 2000
Duration : 1h 0mn
Bit rate mode : Constant
Bit rate : 192 Kbps
Channel(s) : 2 channels
Channel positions : Front: L R
Sampling rate : 48.0 KHz
Bit depth : 16 bits
Compression mode : Lossy
Stream size : 83.6 MiB (10%)
Alignment : Split accross interleaves
Interleave, duration : 42 ms (1.00 video frame)
Interleave, preload duration : 500 ms
Audio #2
ID : 2
Format : AC-3
Format/Info : Audio Coding 3
Mode extension : CM (complete main)
Format settings, Endianness : Big
Codec ID : 2000
Duration : 1h 0mn
Bit rate mode : Constant
Bit rate : 192 Kbps
Channel(s) : 2 channels
Channel positions : Front: L R
Sampling rate : 48.0 KHz
Bit depth : 16 bits
Compression mode : Lossy
Stream size : 83.6 MiB (10%)
Alignment : Split accross interleaves
Interleave, duration : 42 ms (1.00 video frame)
Interleave, preload duration : 500 ms

Скриншоты

Внимание! Раздача ведётся путём добавления новых серий:

(1) остановить скачивание,
(2) удалить старый торрент у себя из клиента (старые серии удалять не надо),
(3) скачать новый торрент и запустить его у себя в клиенте вместо старого, при этом указать клиенту путь в старую папку куда и должно происходить скачивание новых серий.
Ваш клиент при этом должен произвести хеширование (проверку) старой папки (если не производит сам - помогите ему сделать это), и будет докачивать только те серии которых у вас ещё нет. Старые серии при этом не удаляются, а продолжают раздаваться!
Eсли вы уже удалили старые серии, то предотвратить повторную закачку старых серий можно, отжав галочку в соответсвующих местах при запуске нового торрента. По возможности, желательно не удалять старые серии как можно дольше чтобы релизёр не столько продолжал раздавать старые серии, а смог сконцентрироваться на новых
.
[cybertorrent.net].t2684.torrent 
Торрент: Зарегистрирован [ 2019-05-10 16:13 ] · 5F97EA22A9283AF8592859C64AC7182BA5613948

Скачать .torrent

Скачать

19 KB

Статус: проверено
Скачан: 0 раз
Размер: 3,55 GB
terms.php
Показать сообщения:    

Текущее время: 21-Ноя 01:11

Часовой пояс: UTC ± 0



Вы не можете начинать темы
Вы не можете отвечать на сообщения
Вы не можете редактировать свои сообщения
Вы не можете удалять свои сообщения
Вы не можете голосовать в опросах
Вы не можете прикреплять файлы к сообщениям
Вы можете скачивать файлы