Статистика раздачи
Размер:  22,56 GB   |    Зарегистрирован:  6 месяцев 4 дня   |    Скачан:  0 раз

Полного источника не было: Никогда

 
     
 
 

Гость ®

Пол:
Не указан

Никогда не говори «никогда»
Год выпуска: 2018
Производство: Медиа-арена
Жанр: драма, музыка
Продолжительность: ~00:51:00 серия
Субтитры: нет
Режиссёр: Александр Кананович
В ролях: Дарья Щербакова, Кирилл Жандаров, Евгения Малахова, Иван Жидков, Анатолий Руденко, Антон Филипенко, Илья Ермолов, Яков Шамшин, Сергей Кошонин, Игорь Угаров, Анастасия Чурсина, Алексей Коршунов, Андрей Чунарёв, Дмитрий Гудим, Алина Недобитко, Василий Игнатич, Руслан Миколенко, Максим Антипов, Никита Серков, Денис Антипов, Елена Тепляшина, Вадим Дубровин, Алёна Каллистова
Описание: История исполнительницы эстрадных песен, сумевшей добиться успеха в суровые 90-е годы, но при этом сохранившей внутреннюю чистоту и красоту. Основой сюжета телесериала, определяющей эмоциональное состояние героини на разных этапах ее становления, стали все известные песни Татьяны Булановой: "Простая девочка", "Старшая сестра", "Как жаль", "Не плачь", "Колыбельная", "Не бойтесь любви", "Мой сон" и т.д.

Реклама: Нет.
Кинопоиск
Все раздачи сериала
Sample
Качество: HDTV 1080i - daboen
Формат: TS
Видео кодек: AVC
Аудио кодек: MP2
Видео: MPEG4 AVC Video, H264, 16:9, 1920x1080, 25 fps, ~7080 kbps, 0.137 bit/pixel
Аудио: MP2, 2 ch, 192 kbps, 16 bits, 48.0 KHz

MI

General
ID : 1 (0x1)
Complete name : D:\Nikogda.ne.govori.'nikogda'.2018.HDTV.1080i\Nikogda.ne.govori.'nikogda'.01.2018.HDTV.1080i.ts
Format : MPEG-TS
File size : 7.55 GiB
Duration : 2 h 21 min
Overall bit rate mode : Variable
Overall bit rate : 7 659 kb/s
Video
ID : 2911 (0xB5F)
Menu ID : 1357 (0x54D)
Format : AVC
Format/Info : Advanced Video Codec
Format profile : High@L4
Format settings : CABAC / 4 Ref Frames
Format settings, CABAC : Yes
Format settings, ReFrames : 4 frames
Codec ID : 27
Duration : 2 h 21 min
Bit rate : 7 087 kb/s
Width : 1 920 pixels
Height : 1 080 pixels
Display aspect ratio : 16:9
Frame rate : 25.000 FPS
Color space : YUV
Chroma subsampling : 4:2:0
Bit depth : 8 bits
Scan type : MBAFF
Scan type, store method : Interleaved fields
Scan order : Top Field First
Bits/(Pixel*Frame) : 0.137
Stream size : 6.98 GiB (93%)
Audio
ID : 2912 (0xB60)
Menu ID : 1357 (0x54D)
Format : MPEG Audio
Format version : Version 1
Format profile : Layer 2
Codec ID : 3
Duration : 2 h 21 min
Bit rate mode : Constant
Bit rate : 192 kb/s
Channel(s) : 2 channels
Sampling rate : 48.0 kHz
Frame rate : 41.667 FPS (1152 SPF)
Compression mode : Lossy
Delay relative to video : -160 ms
Stream size : 194 MiB (3%)
Language : Russian

Скриншоты


[cybertorrent.net].t2683.torrent 
Торрент: Зарегистрирован [ 2019-05-10 16:13 ] · 25501A084399DD81238EE97F4CA47AF3238680FC

Скачать .torrent

Скачать

113 KB

Статус: проверено
Скачан: 0 раз
Размер: 22,56 GB
terms.php
Показать сообщения:    

Текущее время: 14-Ноя 22:01

Часовой пояс: UTC ± 0



Вы не можете начинать темы
Вы не можете отвечать на сообщения
Вы не можете редактировать свои сообщения
Вы не можете удалять свои сообщения
Вы не можете голосовать в опросах
Вы не можете прикреплять файлы к сообщениям
Вы можете скачивать файлы