Статистика раздачи
Размер:  744 MB   |    Зарегистрирован:  7 месяцев 3 дня   |    Скачан:  0 раз

Полного источника не было: Никогда

 
     
 
 

солнышко ®

Пол:
Не указан
Стаж:
9 месяцев 1 день
Сообщений:
565

Ничего себе каникулы! / Premières vacances
Страна: Франция
Жанр: комедия
Год выпуска: 2018
Продолжительность: 01:37:30-Перевод: Профессиональный (многоголосый закадровый) | Мельница
Субтитры: французские (hardsub)
Оригинальная аудиодорожка: нет-Режиссер: Патрик Кассир / Patrick Cassir-В ролях: Джонатан Коэн, Камиль Шаму, Камилль Коттен, Жереми Элькайм, Венсан Дедьен, Доминик Валадье, Svetlana Gergova, Бар Леви, Саги Альперин, Александр Алексеев-Описание: Марион — развязная и свободная, ей за тридцать, она самодостаточна и не слишком разборчива в связях. Знакомиться с парнями в Tinder для нее привычное дело. Бен — серьезный мужчина, слово «рутина» ему хорошо знакомо, и он не слишком опытен в плане знакомств по интернету. Возраст, город Париж и приложение Tinder в телефонах — больше ничего общего между ними нет. Но происходит Match, и эти двое влюбляются друг в друга на первом же свидании. Обезумев от спонтанной радости, они тут же решают отправиться в совместный отпуск. В Болгарию. Дикарями. Как скоро они обнаружат, что их представления об идеальных каникулах, мягко говоря, не совпадают?- -Качество видео: WEB-DLRip
Формат видео: AVI
Видео: 688x288 (2.39:1), 25 fps, XviD build 73 ~928 kbps avg, 0.19 bit/pixel
Аудио: 48 kHz, MPEG Layer 3, 2 ch, ~128.00 kbps avg-[box]Сэмпл[/box]-

MediaInfo

Код:Формат : AVI
Формат/Информация : Audio Video Interleave
Размер файла : 744 Мбайт
Продолжительность : 1 ч. 37 м.
Общий поток : 1067 Кбит/сек
Название фильма : Ничего себе каникулы!_2018_WEB-DLRip
Программа кодирования : VirtualDubMod 1.5.10.3 | www.virtualdub-fr.org || (build 2550/release)
Авторское право : порошков
Видео
Идентификатор : 0
Формат : MPEG-4 Visual
Профиль формата : Advanced Simple@L5
Настройки формата : BVOP1 / Custom Matrix
Параметр BVOP формата : 1
Параметр QPel формата : Нет
Параметр GMC формата : Без точки перехода
Параметр матрицы формата : Выборочная
Идентификатор кодека : XVID
Идентификатор кодека/Подсказка : XviD
Продолжительность : 1 ч. 37 м.
Битрейт : 929 Кбит/сек
Ширина : 688 пикселей
Высота : 288 пикселей
Соотношение сторон : 2,40:1
Частота кадров : 25,000 кадров/сек
Цветовое пространство : YUV
Субдискретизация насыщенности : 4:2:0
Битовая глубина : 8 бит
Тип развёртки : Прогрессивная
Метод сжатия : С потерями
Бит/(Пиксели*Кадры) : 0.188
Размер потока : 648 Мбайт (87%)
Библиотека кодирования : XviD 73
Аудио
Идентификатор : 1
Формат : MPEG Audio
Версия формата : Version 1
Профиль формата : Layer 3
Идентификатор кодека : 55
Идентификатор кодека/Подсказка : MP3
Продолжительность : 1 ч. 37 м.
Вид битрейта : Постоянный
Битрейт : 128 Кбит/сек
Каналы : 2 канала
Частота : 48,0 КГц
Частота кадров : 41,667 кадра/сек (1152 SPF)
Метод сжатия : С потерями
Размер потока : 89,3 Мбайт (12%)
Выравнивание : Соединение по промежуткам
Продолжительность промежутка : 40 мс. (1,00 видеокадр)
Время предзагрузки промежутка : 504 мс.
Библиотека кодирования : LAME3.99r
Настройки программы : -m s -V 4 -q 2 -lowpass 17 -b 128

Скриншоты


[cybertorrent.net].t2680.torrent 
Торрент: Зарегистрирован [ 2019-05-10 16:13 ] · 695447B619D5D908D5F468CB41F12D0C9FA96B16

Скачать .torrent

Скачать

15 KB

Статус: проверено
Скачан: 0 раз
Размер: 744 MB
terms.php
Профиль [ЛС]
Показать сообщения:    

Текущее время: 14-Дек 01:34

Часовой пояс: UTC ± 0



Вы не можете начинать темы
Вы не можете отвечать на сообщения
Вы не можете редактировать свои сообщения
Вы не можете удалять свои сообщения
Вы не можете голосовать в опросах
Вы не можете прикреплять файлы к сообщениям
Вы можете скачивать файлы