Статистика раздачи
Размер:  1,46 GB   |    Зарегистрирован:  6 месяцев 6 дней   |    Скачан:  0 раз
Сидов:  196  [  0 KB/s  ]   Личеров:  2  [  0 KB/s  ]  
 
     
 
 

Гость ®

Пол:
Не указан

Амбивалентность
«Безумие ближе, чем кажется»
- Год выхода: 2018
Страна: Россия
Жанр: драма, триллер
Продолжительность: 02:01:58-Режиссер:
Антон Бильжо-В ролях:
Данил Стеклов, Егор Морозов, Ольга Цирсен, Валентина Куваева, Валентин Самохин, Иван Верховых, Галина Стаханова, Ксения Базанова, Дмитрий Журавлев, Гарик Айвазов-О фильме:
Два друга молодых психиатра воспринимают жизнь по-разному. Один хочет поступать правильно. Второй - ставить эксперименты. Один прилежный ученик. Второй нарушитель спокойствия. Один любит, ненавидя. Второй ненавидит, любя. Жаль только, что предмет страсти у них один - Катерина Сергеевна. Для одного она мама, жена папы. Для другого - любовница. Но выдержит ли их дружба испытание страстью к одной женщине? Это интригующая история о необычном любовном треугольнике и о том, что безумие ближе, чем кажется.-Релиз групп | | КиноПоиск | Сэмпл |-Качество: WEBRip
Формат: AVI
Видео: 720x448 (1.61:1), 24.000 fps, XviD build 67 ~1508 kbps avg, 0.20 bit/pixel
Аудио: 48 kHz, AC3 Dolby Digital, 2/0 (L,R) ch, ~192 kbps avg-

Скриншоты

-

MediaInfo

Код:Полное имя : G:\Ambivalentnost`_2018_WEBRip_by_Dalemake.avi
Формат : AVI
Формат/Информация : Audio Video Interleave
Размер файла : 1,46 Гбайт
Продолжительность : 2 ч. 1 м.
Общий поток : 1710 Кбит/сек
Программа кодирования : VirtualDubMod 1.5.10.3 | www.virtualdub-fr.org || (build 2550/release)
Библиотека кодирования : VirtualDubMod build 2550/release
Видео
Идентификатор : 0
Формат : MPEG-4 Visual
Профиль формата : Advanced Simple@L5
Параметр BVOP формата : 1
Параметр QPel формата : Нет
Параметр GMC формата : Без точки перехода
Параметр матрицы формата : Выборочная
Идентификатор кодека : XVID
Идентификатор кодека/Подсказка : XviD
Продолжительность : 2 ч. 1 м.
Битрейт : 1509 Кбит/сек
Ширина : 720 пикселей
Высота : 448 пикселей
Соотношение сторон : 16:10
Частота кадров : 24,000 кадра/сек
Цветовое пространство : YUV
Субдискретизация насыщенности : 4:2:0
Битовая глубина : 8 бит
Тип развёртки : Прогрессивная
Метод сжатия : С потерями
Бит/(Пиксели*Кадры) : 0.195
Размер потока : 1,29 Гбайт (88%)
Библиотека кодирования : XviD 67
Аудио
Идентификатор : 1
Формат : AC-3
Формат/Информация : Audio Coding 3
Расширение режима : CM (complete main)
Параметр Endianness формата : Big
Идентификатор кодека : 2000
Продолжительность : 2 ч. 1 м.
Вид битрейта : Постоянный
Битрейт : 192 Кбит/сек
Каналы : 2 канала
Расположение каналов : Front: L R
Частота : 48,0 КГц
Метод сжатия : С потерями
Размер потока : 168 Мбайт (11%)
Выравнивание : Разделение по промежуткам
Продолжительность промежутка : 42 мс. (1,00 видеокадр)
Время предзагрузки промежутка : 500 мс.
-
[cybertorrent.net].t2678.torrent 
Торрент: Зарегистрирован [ 2019-05-10 16:13 ] · E733ED34040430C5FC4E8DF627208E3532D15CCE

Скачать .torrent

Скачать

15 KB

Статус: проверено
Скачан: 0 раз
Размер: 1,46 GB
terms.php
Показать сообщения:    

Текущее время: 17-Ноя 05:34

Часовой пояс: UTC ± 0



Вы не можете начинать темы
Вы не можете отвечать на сообщения
Вы не можете редактировать свои сообщения
Вы не можете удалять свои сообщения
Вы не можете голосовать в опросах
Вы не можете прикреплять файлы к сообщениям
Вы можете скачивать файлы