Статистика раздачи
Размер:  744 MB   |    Зарегистрирован:  7 месяцев 5 дней   |    Скачан:  0 раз

Полного источника не было: Никогда

 
     
 
 

солнышко ®

Пол:
Не указан
Стаж:
9 месяцев 2 дня
Сообщений:
614

Медовый месяц / Элизабет Харвест / Elizabeth Harvest
Страна: США
Жанр: триллер, фантастика
Год выпуска: 2018
Продолжительность: 01:48:50-Перевод: Профессиональный (многоголосый закадровый) | iTunes
Субтитры: нет
Оригинальная аудиодорожка: нет-Режиссер: Себастьян Гутьеррес / Sebastian Gutierrez-В ролях: Эбби Ли, Киран Хайндс, Карла Гуджино, Мэттью Бирд, Дилан Бейкер-Описание: Элизабет всегда мечтала очаровать достойного человека, и чтобы он увёз её подальше ото всех уродств этого мира. И вот мечта сбывается — девушка выходит замуж за блестящего учёного Генри, на много лет её старше. Тот привозит жену в свой особняк, и говорит, что все в этом доме — для неё, кроме одной комнаты, в которую нельзя заходить ни в коем случае. Прислуга относится к новой хозяйке с почтением, но та чувствует, что что-то не так. Однажды, когда супруг отлучается по делам, Элизабет решает выяснить, что же это за загадочная запретная комната.- -Качество видео: BDRip | ELIZABETH_HARVEST_2018_BLUEBIRD
Формат видео: AVI
Видео: 688x288 (2.39:1), 23.976 fps, XviD build 73 ~818 kbps avg, 0.17 bit/pixel
Аудио: 48 kHz, MPEG Layer 3, 2 ch, ~128.00 kbps avg-[box]Сэмпл[/box]-

MediaInfo

Код:Формат : AVI
Формат/Информация : Audio Video Interleave
Размер файла : 744 Мбайт
Продолжительность : 1 ч. 48 м.
Общий поток : 956 Кбит/сек
Название фильма : Медовый месяц_2018_BDRip
Программа кодирования : VirtualDubMod 1.5.10.3 | www.virtualdub-fr.org || (build 2550/release)
Авторское право : порошков
Видео
Идентификатор : 0
Формат : MPEG-4 Visual
Профиль формата : Advanced Simple@L5
Настройки формата : BVOP1 / Custom Matrix
Параметр BVOP формата : 1
Параметр QPel формата : Нет
Параметр GMC формата : Без точки перехода
Параметр матрицы формата : Выборочная
Идентификатор кодека : XVID
Идентификатор кодека/Подсказка : XviD
Продолжительность : 1 ч. 48 м.
Битрейт : 819 Кбит/сек
Ширина : 688 пикселей
Высота : 288 пикселей
Соотношение сторон : 2,40:1
Частота кадров : 23,976 (24000/1001) кадра/сек
Цветовое пространство : YUV
Субдискретизация насыщенности : 4:2:0
Битовая глубина : 8 бит
Тип развёртки : Прогрессивная
Метод сжатия : С потерями
Бит/(Пиксели*Кадры) : 0.172
Размер потока : 637 Мбайт (86%)
Библиотека кодирования : XviD 73
Аудио
Идентификатор : 1
Формат : MPEG Audio
Версия формата : Version 1
Профиль формата : Layer 3
Идентификатор кодека : 55
Идентификатор кодека/Подсказка : MP3
Продолжительность : 1 ч. 48 м.
Вид битрейта : Постоянный
Битрейт : 128 Кбит/сек
Каналы : 2 канала
Частота : 48,0 КГц
Частота кадров : 41,667 кадра/сек (1152 SPF)
Метод сжатия : С потерями
Размер потока : 99,6 Мбайт (13%)
Выравнивание : Соединение по промежуткам
Продолжительность промежутка : 42 мс. (1,00 видеокадр)
Время предзагрузки промежутка : 504 мс.
Библиотека кодирования : LAME3.99r
Настройки программы : -m s -V 4 -q 2 -lowpass 17 -b 128

Скриншоты


[cybertorrent.net].t2669.torrent 
Торрент: Зарегистрирован [ 2019-05-09 15:59 ] · 4CEDA93A644D0C0FCB11DBACA05649304ED966EC

Скачать .torrent

Скачать

15 KB

Статус: проверено
Скачан: 0 раз
Размер: 744 MB
terms.php
Профиль [ЛС]
Показать сообщения:    

Текущее время: 15-Дек 11:44

Часовой пояс: UTC ± 0



Вы не можете начинать темы
Вы не можете отвечать на сообщения
Вы не можете редактировать свои сообщения
Вы не можете удалять свои сообщения
Вы не можете голосовать в опросах
Вы не можете прикреплять файлы к сообщениям
Вы можете скачивать файлы