Статистика раздачи
Размер:  1,47 GB   |    Зарегистрирован:  6 месяцев 4 дня   |    Скачан:  0 раз

Полного источника не было: Никогда

 
     
 
 

солнышко ®

Пол:
Не указан
Стаж:
8 месяцев 1 день
Сообщений:
565

Вам бы встретиться с моим сынком 2! / You Should Meet My Son 2!
Страна: США
Жанр: комедия, гей-тема
Год выпуска: 2018
Продолжительность: 01:16:06
Перевод: Любительский (двухголосый закадровый) - Странные миры
Субтитры: русские (rw18)
Оригинальная аудиодорожка: английский
Режиссер: Кит Хартман / Keith Hartman
В ролях: Райанн Роббинс, Эмори Дункан, Нерисса Тедеско, Тайлер Ричмайер, Робин С. Рот, Джорди Эмануэль Берриос, Тайлер Бут, Данто, Дэвид Фрэзиер, Кевин Айсом
Описание: Это продолжение фильма, получившего восемь лет назад премию «Лучшая картина» на девяти кинофестивалях. В то время как поклонники первого фильма узнают многих персонажей, продолжение можно в полной мере считать самостоятельной картиной. Действие развивается через год после событий «Вам бы встретиться с моим сынком!». Брайану и Чейзу осталось 48 часов до свадьбы, и вы приглашены! К сожалению, из-за благонамеренного, но неуместного вмешательства Мэй и Роуз, мама Чейза Айрин, ошибочно считает, что Чейз изменился и женится на женщине. Но когда она узнает правду, она одержима идей остановить эту «сатанинскую свадьбу». Кроме этого, Брайану и Чейзу придется преодолевать свои собственные разногласия из их прошлого. Холостяцкая вечеринка Брайана состояла из фондю с его коллегами. А у мальчишника Чейза есть спонсор нижнего белья! Противоположности притягиваются, но смогут ли они быть вместе? В этом милом и забавном фильме снимались другие актеры, нежели в первой части, но в нем есть та же сердечность, которая принесла популярность оригиналу. А если этого недостаточно, есть стриптизеры, женщины-травести и… трансвеститы! И никогда не стоит недооценивать трансвестита с клеевым пистолетом.--Исходник для рипа и субтитры предоставил rw18. Он же перевёл фильм. Большое ему спасибо! Озвучка по субтитрам. Текст читали Ruben Mendez и Леонора. Спасибо им!--Сэмпл
Качество видео: WEBRip
Формат видео: AVI
Видео: 720x400 (1.80:1), 25 fps, XviD build 73 ~2368 kbps avg, 0.33 bit/pixel
Аудио: 48 kHz, AC3 Dolby Digital, 2/0 (L,R) ch, ~192 kbps - двухголосый
Аудио: 44.1 kHz, AC3 Dolby Digital, 2/0 (L,R) ch, ~192 kbps - оригинал
Формат субтитров: softsub (SRT)

MediaInfo

General
Complete name : H:\You.Should.Meet.My.Son_2!.2018.webrip_[1.46]_[teko]\You.Should.Meet.My.Son_2!.2018.webrip_[1.46].avi
Format : AVI
Format/Info : Audio Video Interleave
File size : 1.47 GiB
Duration : 1h 16mn
Overall bit rate : 2 767 Kbps
Writing application : VirtualDubMod 1.5.10.3 | www.virtualdub-fr.org || (build 2550/release)
Writing library : VirtualDubMod build 2550/release
Video
ID : 0
Format : MPEG-4 Visual
Format profile : Advanced Simple@L5
Format settings, BVOP : 1
Format settings, QPel : No
Format settings, GMC : No warppoints
Format settings, Matrix : Custom
Codec ID : XVID
Codec ID/Hint : XviD
Duration : 1h 16mn
Bit rate : 2 369 Kbps
Width : 720 pixels
Height : 400 pixels
Display aspect ratio : 16:9
Frame rate : 25.000 fps
Color space : YUV
Chroma subsampling : 4:2:0
Bit depth : 8 bits
Scan type : Progressive
Compression mode : Lossy
Bits/(Pixel*Frame) : 0.329
Stream size : 1.26 GiB (86%)
Writing library : XviD 73
Audio #1
ID : 1
Format : AC-3
Format/Info : Audio Coding 3
Mode extension : CM (complete main)
Format settings, Endianness : Big
Codec ID : 2000
Duration : 1h 16mn
Bit rate mode : Constant
Bit rate : 192 Kbps
Channel(s) : 2 channels
Channel positions : Front: L R
Sampling rate : 48.0 KHz
Frame rate : 31.250 fps (1536 spf)
Compression mode : Lossy
Stream size : 105 MiB (7%)
Alignment : Split accross interleaves
Interleave, duration : 40 ms (1.00 video frame)
Interleave, preload duratio : 500 ms
Audio #2
ID : 2
Format : AC-3
Format/Info : Audio Coding 3
Mode extension : CM (complete main)
Format settings, Endianness : Big
Codec ID : 2000
Duration : 1h 16mn
Bit rate mode : Constant
Bit rate : 192 Kbps
Channel(s) : 2 channels
Channel positions : Front: L R
Sampling rate : 44.1 KHz
Frame rate : 28.711 fps (1536 spf)
Compression mode : Lossy
Stream size : 104 MiB (7%)
Alignment : Split accross interleaves
Interleave, duration : 40 ms (1.00 video frame)
Interleave, preload duratio : 500 ms

Скриншоты

Релиз группы:
--
[cybertorrent.net].t2661.torrent 
Торрент: Зарегистрирован [ 2019-05-09 15:59 ] · 532300F6C4A9F964D1587288199FEEDA613EF636

Скачать .torrent

Скачать

15 KB

Статус: проверено
Скачан: 0 раз
Размер: 1,47 GB
terms.php
Профиль ЛС
Показать сообщения:    

Текущее время: 14-Ноя 04:04

Часовой пояс: UTC ± 0



Вы не можете начинать темы
Вы не можете отвечать на сообщения
Вы не можете редактировать свои сообщения
Вы не можете удалять свои сообщения
Вы не можете голосовать в опросах
Вы не можете прикреплять файлы к сообщениям
Вы можете скачивать файлы