Статистика раздачи
Размер:  2,18 GB   |    Зарегистрирован:  8 месяцев 14 дней   |    Скачан:  0 раз
Сидов:  25  [  0 KB/s  ]   Личеров:  1  [  0 KB/s  ]  
 
     
 
 

Гость ®

Пол:
Не указан

Амбивалентность
Страна: Россия
Жанр: драма, триллер
Год выпуска: 2018
Продолжительность: 01:57:04
Субтитры: нет-Режиссер:
Антон Бильжо-В ролях:
Данил Стеклов, Егор Морозов, Ольга Цирсен, Валентина Куваева, Валентин Самохин, Иван Верховых, Галина Стаханова, Ксения Базанова, Дмитрий Журавлев, Гарик Айвазов-Описание:
Два друга молодых психиатра воспринимают жизнь по-разному. Один хочет поступать правильно. Второй - ставить эксперименты. Один прилежный ученик. Второй нарушитель спокойствия. Один любит, ненавидя. Второй ненавидит, любя. Жаль только, что предмет страсти у них один - Катерина Сергеевна. Для одного она мама, жена папы. Для другого - любовница. Но выдержит ли их дружба испытание страстью к одной женщине? Это интригующая история о необычном любовном треугольнике и о том, что безумие ближе, чем кажется.- -Качество видео: WEB-DLRip
Формат видео: AVI
Видео: 720x448 (1.61:1), 25 fps, XviD build 73 ~2274 kbps avg, 0.28 bit/pixel
Аудио: 48 kHz, AC3 Dolby Digital, 3/2 (L,C,R,l,r) + LFE ch, ~384 kbps - iTunes--Сэмпл--

MediaInfo

Код:Формат : AVI
Формат/Информация : Audio Video Interleave
Профиль формата : OpenDML
Размер файла : 2,18 Гбайт
Продолжительность : 1 ч. 57 м.
Общий поток : 2665 Кбит/сек
Название фильма : Амбивалентность_2018_WEB-DLRip
Программа кодирования : VirtualDubMod 1.5.10.3 | www.virtualdub-fr.org || (build 2550/release)
Авторское право : порошков
Видео
Идентификатор : 0
Формат : MPEG-4 Visual
Профиль формата : Advanced Simple@L5
Настройки формата : BVOP1 / Custom Matrix
Параметр BVOP формата : 1
Параметр QPel формата : Нет
Параметр GMC формата : Без точки перехода
Параметр матрицы формата : Выборочная
Идентификатор кодека : XVID
Идентификатор кодека/Подсказка : XviD
Продолжительность : 1 ч. 57 м.
Битрейт : 2269 Кбит/сек
Ширина : 720 пикселей
Высота : 448 пикселей
Соотношение сторон : 16:10
Частота кадров : 25,000 кадров/сек
Цветовое пространство : YUV
Субдискретизация насыщенности : 4:2:0
Битовая глубина : 8 бит
Тип развёртки : Прогрессивная
Метод сжатия : С потерями
Бит/(Пиксели*Кадры) : 0.281
Размер потока : 1,86 Гбайт (85%)
Библиотека кодирования : XviD 73
Аудио
Идентификатор : 1
Формат : AC-3
Формат/Информация : Audio Coding 3
Коммерческое название : Dolby Digital
Идентификатор кодека : 2000
Продолжительность : 1 ч. 57 м.
Вид битрейта : Постоянный
Битрейт : 384 Кбит/сек
Каналы : 6 каналов
ChannelLayout : L R C LFE Ls Rs
Частота : 48,0 КГц
Частота кадров : 31,250 кадров/сек (1536 SPF)
Битовая глубина : 16 бит
Метод сжатия : С потерями
Размер потока : 322 Мбайт (14%)
Выравнивание : Разделение по промежуткам
Продолжительность промежутка : 40 мс. (1,00 видеокадр)
Время предзагрузки промежутка : 500 мс.
ServiceKind/String : Complete Main

Скриншоты


[cybertorrent.net].t2658.torrent 
Торрент: Зарегистрирован [ 2019-05-09 15:59 ] · 483DB675534311C6D853CA09014A66DA7035976B

Скачать .torrent

Скачать

11 KB

Статус: проверено
Скачан: 0 раз
Размер: 2,18 GB
terms.php
Показать сообщения:    

Текущее время: 24-Янв 15:21

Часовой пояс: UTC ± 0



Вы не можете начинать темы
Вы не можете отвечать на сообщения
Вы не можете редактировать свои сообщения
Вы не можете удалять свои сообщения
Вы не можете голосовать в опросах
Вы не можете прикреплять файлы к сообщениям
Вы можете скачивать файлы