Статистика раздачи
Размер:  1,09 GB   |    Зарегистрирован:  7 месяцев 2 дня   |    Скачан:  0 раз

Полного источника не было: Никогда

 
     
 
 

karlll ®

Пол:
Не указан
Стаж:
8 месяцев 30 дней
Сообщений:
171

Поднять якоря! / Elias og Storegaps Hemmelighet
Страна: Норвегия
Жанр: мультфильм
Год выпуска: 2017
Продолжительность: 01:10:37-Перевод: Профессиональный (дублированный)
Субтитры: русские
Оригинальная аудиодорожка: нет-Режиссер: Симен Альсвик / Simen Alsvik, Уилл Ашерст / Will Ashurst-В ролях: Сампда Шарма, Мари Блокхус, Андерз Эйде, Маркус Гуннарсен, Мартинус Гуннарсен, Андреа Брайн Ховиг, Свейн Роджер Карлсен, Магнус Креппер, Ингве Маркуссен, Рави-Описание: Спасательный катерок Элиас работает в небольшой бухте. Однажды во время шторма он слышит сигнал о помощи и выручает из беды корабль, идущий в крупный международный порт. После этого случая Элиас становится настоящим героем и его приглашают работать спасателем в этот порт. Всё это очень льстит самолюбию Элиаса, но легко ли ему будет оставить друзей, к которым он так привык? Вдобавок ко всему работа на новом месте гораздо опасней, ведь неподалеку орудует шайка контрабандистов. Сумеет ли Элиас справиться со всем этим?- -Качество видео: WEB-DLRip
Формат видео: AVI
Видео: 704x400 (1.76:1), 25 fps, XviD build 73 ~1819 kbps avg, 0.26 bit/pixel
Аудио 1: 48 kHz, AC3 Dolby Digital, 2/0 (L,R) ch, ~192 kbps | rus
Аудио 2: 48 kHz, AC3 Dolby Digital, 2/0 (L,R) ch, ~192 kbps | ukr-[box]Сэмпл[/box]-

MediaInfo

Код:Формат : AVI
Формат/Информация : Audio Video Interleave
Размер файла : 1,09 Гбайт
Продолжительность : 1 ч. 10 м.
Общий поток : 2219 Кбит/сек
Название фильма : Поднять якоря!_2017_WEB-DLRip
Программа кодирования : VirtualDubMod 1.5.10.3 | www.virtualdub-fr.org || (build 2550/release)
Авторское право : порошков
Видео
Идентификатор : 0
Формат : MPEG-4 Visual
Профиль формата : Advanced Simple@L5
Настройки формата : BVOP1 / Custom Matrix
Параметр BVOP формата : 1
Параметр QPel формата : Нет
Параметр GMC формата : Без точки перехода
Параметр матрицы формата : Выборочная
Идентификатор кодека : XVID
Идентификатор кодека/Подсказка : XviD
Продолжительность : 1 ч. 10 м.
Битрейт : 1820 Кбит/сек
Ширина : 704 пикселя
Высота : 400 пикселей
Соотношение сторон : 16:9
Частота кадров : 25,000 кадров/сек
Цветовое пространство : YUV
Субдискретизация насыщенности : 4:2:0
Битовая глубина : 8 бит
Тип развёртки : Прогрессивная
Метод сжатия : С потерями
Бит/(Пиксели*Кадры) : 0.259
Размер потока : 919 Мбайт (82%)
Библиотека кодирования : XviD 73
Аудио #1
Идентификатор : 1
Формат : AC-3
Формат/Информация : Audio Coding 3
Коммерческое название : Dolby Digital
Идентификатор кодека : 2000
Продолжительность : 1 ч. 10 м.
Вид битрейта : Постоянный
Битрейт : 192 Кбит/сек
Каналы : 2 канала
ChannelLayout : L R
Частота : 48,0 КГц
Частота кадров : 31,250 кадров/сек (1536 SPF)
Битовая глубина : 16 бит
Метод сжатия : С потерями
Размер потока : 97,0 Мбайт (9%)
Выравнивание : Разделение по промежуткам
Продолжительность промежутка : 40 мс. (1,00 видеокадр)
Время предзагрузки промежутка : 500 мс.
Заголовок : Rus
ServiceKind/String : Complete Main
Аудио #2
Идентификатор : 2
Формат : AC-3
Формат/Информация : Audio Coding 3
Коммерческое название : Dolby Digital
Идентификатор кодека : 2000
Продолжительность : 1 ч. 10 м.
Вид битрейта : Постоянный
Битрейт : 192 Кбит/сек
Каналы : 2 канала
ChannelLayout : L R
Частота : 48,0 КГц
Частота кадров : 31,250 кадров/сек (1536 SPF)
Битовая глубина : 16 бит
Метод сжатия : С потерями
Размер потока : 97,0 Мбайт (9%)
Выравнивание : Разделение по промежуткам
Продолжительность промежутка : 40 мс. (1,00 видеокадр)
Время предзагрузки промежутка : 500 мс.
Заголовок : Ukr
ServiceKind/String : Complete Main

Скриншоты


[cybertorrent.net].t2657.torrent 
Торрент: Зарегистрирован [ 2019-05-09 15:59 ] · A0F9881B0D35C3AB24BC31F31CD74F01A9E0C5F7

Скачать .torrent

Скачать

12 KB

Статус: проверено
Скачан: 0 раз
Размер: 1,09 GB
terms.php
Профиль [ЛС]
Показать сообщения:    

Текущее время: 12-Дек 04:59

Часовой пояс: UTC ± 0



Вы не можете начинать темы
Вы не можете отвечать на сообщения
Вы не можете редактировать свои сообщения
Вы не можете удалять свои сообщения
Вы не можете голосовать в опросах
Вы не можете прикреплять файлы к сообщениям
Вы можете скачивать файлы