Статистика раздачи
Размер:  2 GB   |    Зарегистрирован:  6 месяцев 8 дней   |    Скачан:  0 раз

Полного источника не было: Никогда

 
     
 
 

Гость ®

Пол:
Не указан

Пустельга
Жанр: драма
Год выпуска: 1992
Продолжительность: 01:18:30
Режиссёр: Сергей Русаков
В ролях: Алеша Игушкин, Нина Русланова, Сергей Гармаш, Галина Макарова, Гарик Сукачев, Рома Барышев, Виктор Михайлов, Ольга Кондратова, Лейла Киракосян, Александр Лыков, Александр Кавалеров, Николай Колчин, Дмитрий Воронков, Виктор Николаев, Алексей Миронов, Марьяна (Марианна) Семенова
Описание: Семидесятые годы. В захолустном поселке на берегу моря живет мальчик по прозвищу Шумилка, поселковый пересмешник и озорник. Верный поклонник мастера цирка Леонида Енгибарова считает себя его сыном. Но самому Енгибарову написать письмо и попросить совета, как поступить в цирк, никак не осмелится.
Нравы и дух поселка, его убогая и полупьяная жизнь вызывают у тринадцатилетнего Шумилки желание мстить всеми способами. А мир ему мстит по-своему: на мальчика все махнули рукой — и мать, и бабка, и глухонемой дед. К тому же исключают из школы за то, что, не сдержавшись, ударил чайником учителя. И грозит теперь пацану колония…

Сэмпл: http://multi-up.com/809625
Качество видео: DVB
Формат видео: MPEG-PS
Видео: MPEG-2 Video, 720x576 (4:3), 25 fps, 3 387 Kbps, 0.33 bit/pixel
Аудио: 48 kHz, MPEG Audio, 2 ch, 192 kbps

MediaInfo

General
Complete name : C:Пустельга_1992_DVB_by_dean10.mpg
Format : MPEG-PS
File size : 2.00 GiB
Duration : 1h 18mn
Overall bit rate mode : Variable
Overall bit rate : 3 648 Kbps
Video
ID : 224 (0xE0)
Format : MPEG Video
Format version : Version 2
Format profile : Main@Main
Format settings, BVOP : Yes
Format settings, Matrix : Custom
Duration : 1h 18mn
Bit rate mode : Variable
Bit rate : 3 384 Kbps
Maximum bit rate : 15.0 Mbps
Width : 720 pixels
Height : 576 pixels
Display aspect ratio : 4:3
Frame rate : 25.000 fps
Standard : PAL
Color space : YUV
Chroma subsampling : 4:2:0
Bit depth : 8 bits
Scan type : Interlaced
Scan order : Top Field First
Compression mode : Lossy
Bits/(Pixel*Frame) : 0.326
Stream size : 1.86 GiB (93%)
Audio
ID : 192 (0xC0)
Format : MPEG Audio
Format version : Version 1
Format profile : Layer 2
Duration : 1h 18mn
Bit rate mode : Constant
Bit rate : 192 Kbps
Channel(s) : 2 channels
Sampling rate : 48.0 KHz
Compression mode : Lossy
Stream size : 108 MiB (5%)

Bitrate Viewer

Скриншот c названием фильма

Скриншоты

[cybertorrent.net].t2645.torrent 
Торрент: Зарегистрирован [ 2019-05-09 15:59 ] · 7434909FFFF4EEFBA67900D69020B8B429EC4B74

Скачать .torrent

Скачать

10 KB

Статус: проверено
Скачан: 0 раз
Размер: 2 GB
terms.php
Показать сообщения:    

Текущее время: 17-Ноя 18:05

Часовой пояс: UTC ± 0



Вы не можете начинать темы
Вы не можете отвечать на сообщения
Вы не можете редактировать свои сообщения
Вы не можете удалять свои сообщения
Вы не можете голосовать в опросах
Вы не можете прикреплять файлы к сообщениям
Вы можете скачивать файлы