Статистика раздачи
Размер:  1,46 GB   |    Зарегистрирован:  7 месяцев 1 день   |    Скачан:  0 раз
Сидов:  101  [  0 KB/s  ]   Личеров:  3  [  0 KB/s  ]  
 
     
 
 

Гость ®

Пол:
Не указан

Ничего себе каникулы! / Premières vacances
«Отпуск – худшее испытание для пары»
- Год выхода: 2019
Страна: Франция
Жанр: комедия
Продолжительность: 01:41:35
Перевод: Профессиональный (многоголосый закадровый) Мельница
Субтитры: нет-Режиссер:
Патрик Кассир / Patrick Cassir-В ролях:
Джонатан Коэн, Камиль Шаму, Камилль Коттен, Жереми Элькайм, Венсан Дедьен, Доминик Валадье, Svetlana Gergova, Бар Леви, Саги Альперин, Александр Алексеев-О фильме:
Марион — развязная и свободная, ей за тридцать, она самодостаточна и не слишком разборчива в связях. Знакомиться с парнями в Tinder для нее привычное дело. Бен — серьезный мужчина, слово «рутина» ему хорошо знакомо, и он не слишком опытен в плане знакомств по интернету. Возраст, город Париж и приложение Tinder в телефонах — больше ничего общего между ними нет. Но происходит Match, и эти двое влюбляются друг в друга на первом же свидании. Обезумев от спонтанной радости, они тут же решают отправиться в совместный отпуск. В Болгарию. Дикарями. Как скоро они обнаружат, что их представления об идеальных каникулах, мягко говоря, не совпадают?-Релиз групп | | IMDB | КиноПоиск | Сэмпл |-Качество: WEBRip
Формат: AVI
Видео: 720x320 (2.25:1), 24.000 fps, XviD build 67 ~1849 kbps avg, 0.33 bit/pixel
Аудио: 48 kHz, AC3 Dolby Digital, 2/0 (L,R) ch, ~192 kbps avg-

Скриншоты

-

MediaInfo

Код:Полное имя : G:\Ni4ego_sebe_kanikuly_2018_WEBRip_by_Dalemake.avi
Формат : AVI
Формат/Информация : Audio Video Interleave
Размер файла : 1,46 Гбайт
Продолжительность : 1 ч. 41 м.
Общий поток : 2051 Кбит/сек
Программа кодирования : VirtualDubMod 1.5.10.3 | www.virtualdub-fr.org || (build 2550/release)
Библиотека кодирования : VirtualDubMod build 2550/release
Видео
Идентификатор : 0
Формат : MPEG-4 Visual
Профиль формата : Advanced Simple@L5
Параметр BVOP формата : 1
Параметр QPel формата : Нет
Параметр GMC формата : Без точки перехода
Параметр матрицы формата : Выборочная
Идентификатор кодека : XVID
Идентификатор кодека/Подсказка : XviD
Продолжительность : 1 ч. 41 м.
Битрейт : 1849 Кбит/сек
Ширина : 720 пикселей
Высота : 320 пикселей
Соотношение сторон : 2,25:1
Частота кадров : 24,000 кадра/сек
Цветовое пространство : YUV
Субдискретизация насыщенности : 4:2:0
Битовая глубина : 8 бит
Тип развёртки : Прогрессивная
Метод сжатия : С потерями
Бит/(Пиксели*Кадры) : 0.334
Размер потока : 1,31 Гбайт (90%)
Библиотека кодирования : XviD 67
Аудио
Идентификатор : 1
Формат : AC-3
Формат/Информация : Audio Coding 3
Расширение режима : CM (complete main)
Параметр Endianness формата : Big
Идентификатор кодека : 2000
Продолжительность : 1 ч. 41 м.
Вид битрейта : Постоянный
Битрейт : 192 Кбит/сек
Каналы : 2 канала
Расположение каналов : Front: L R
Частота : 48,0 КГц
Метод сжатия : С потерями
Размер потока : 140 Мбайт (9%)
Выравнивание : Разделение по промежуткам
Продолжительность промежутка : 42 мс. (1,00 видеокадр)
Время предзагрузки промежутка : 500 мс.
-
[cybertorrent.net].t2640.torrent 
Торрент: Зарегистрирован [ 2019-05-08 15:38 ] · D2DB4EA2AC2AFD3711B0D85B6A1E05470207D3A1

Скачать .torrent

Скачать

15 KB

Статус: проверено
Скачан: 0 раз
Размер: 1,46 GB
terms.php
Показать сообщения:    

Текущее время: 10-Дек 09:13

Часовой пояс: UTC ± 0



Вы не можете начинать темы
Вы не можете отвечать на сообщения
Вы не можете редактировать свои сообщения
Вы не можете удалять свои сообщения
Вы не можете голосовать в опросах
Вы не можете прикреплять файлы к сообщениям
Вы можете скачивать файлы