Статистика раздачи
Размер:  3,73 GB   |    Зарегистрирован:  6 месяцев 5 дней   |    Скачан:  0 раз
Сидов:  15  [  0 KB/s  ]   Личеров:  2  [  0 KB/s  ]  
 
     
 
 

Гость ®

Пол:
Не указан

Никогда не говори «никогда»
Год выпуска: 2018
Производство: Медиа-арена
Жанр: драма, музыка
Продолжительность: ~00:51:00 серия
Субтитры: нет
Режиссёр: Александр Кананович
В ролях: Дарья Щербакова, Кирилл Жандаров, Евгения Малахова, Иван Жидков, Анатолий Руденко, Антон Филипенко, Илья Ермолов, Яков Шамшин, Сергей Кошонин, Игорь Угаров, Анастасия Чурсина, Алексей Коршунов, Андрей Чунарёв, Дмитрий Гудим, Алина Недобитко, Василий Игнатич, Руслан Миколенко, Максим Антипов, Никита Серков, Денис Антипов, Елена Тепляшина, Вадим Дубровин, Алёна Каллистова
Описание: История исполнительницы эстрадных песен, сумевшей добиться успеха в суровые 90-е годы, но при этом сохранившей внутреннюю чистоту и красоту. Основой сюжета телесериала, определяющей эмоциональное состояние героини на разных этапах ее становления, стали все известные песни Татьяны Булановой: "Простая девочка", "Старшая сестра", "Как жаль", "Не плачь", "Колыбельная", "Не бойтесь любви", "Мой сон" и т.д.

Реклама: Нет.
Кинопоиск
Все раздачи сериала
Sample
Качество: SATRip - 7turza
Формат: AVI
Видео кодек: XviD
Аудио кодек: MP3
Видео: 720x400 (1.80:1), 25 fps, XviD ~1700 kbps avg, 0.236 bit/pixel
Аудио: 48 kHz, MPEG Layer 3, 2 ch, ~192.00 kbps avg

Внимание! Раздача ведётся путём добавления новых серий

Раздача ведётся путём добавления новых серий, при каждом добавлении создаётся новый торрент. Чтобы начать докачку новой серии, пользователям необходимо сделать следующее:
- Остановить скачивание.
- Удалить старый торрент у себя из клиента (старые серии удалять не надо).
- Скачать новый торрент и запустить его у себя в клиенте вместо старого, при этом указать клиенту путь в старую папку куда и должно происходить скачивание новых серий.
Ваш клиент при этом должен произвести хеширование (проверку) старой папки (если не производит сам - помогите ему сделать это), и будет докачивать только те серии которых у вас ещё нет. Старые серии при этом не удаляются, а продолжают раздаваться!
Если вы уже удалили старые серии, то предотвратить повторную закачку старых серий можно, отжав галочку в соответствующих местах при запуске нового торрента. По возможности, желательно не удалять старые серии как можно дольше, чтобы релизер не столько продолжал раздавать старые серии, а смог сконцентрироваться на новых.

MI

General
Complete name : D:\Никогда.Не.Говори.Никогда.XviD.2018.SATRp.7turza\Никогда.Не.Говори.Никогда.E01.XviD.2018.SATRp.7turza.avi
Format : AVI
Format/Info : Audio Video Interleave
File size : 702 MiB
Duration : 51 min 34 s
Overall bit rate : 1 903 kb/s
Writing application : Lavf58.20.100
Writing library : VirtualDub build 35576/release
Video
ID : 0
Format : MPEG-4 Visual
Format profile : Advanced Simple@L5
Format settings : BVOP1
Format settings, BVOP : 1
Format settings, QPel : No
Format settings, GMC : No warppoints
Format settings, Matrix : Default (H.263)
Codec ID : XVID
Codec ID/Hint : XviD
Duration : 51 min 34 s
Bit rate : 1 698 kb/s
Width : 720 pixels
Height : 400 pixels
Display aspect ratio : 16:9
Frame rate : 25.000 FPS
Color space : YUV
Chroma subsampling : 4:2:0
Bit depth : 8 bits
Scan type : Progressive
Compression mode : Lossy
Bits/(Pixel*Frame) : 0.236
Stream size : 626 MiB (89%)
Writing library : XviD 67
Audio
ID : 1
Format : MPEG Audio
Format version : Version 1
Format profile : Layer 3
Format settings : Joint stereo / MS Stereo
Codec ID : 55
Codec ID/Hint : MP3
Duration : 51 min 34 s
Bit rate mode : Constant
Bit rate : 192 kb/s
Channel(s) : 2 channels
Sampling rate : 48.0 kHz
Compression mode : Lossy
Stream size : 70.8 MiB (10%)
Alignment : Aligned on interleaves
Interleave, duration : 24 ms (0.60 video frame)
Interleave, preload duratio : 504 ms
Writing library : LAME3.100UriґЌ2

Скриншоты


[cybertorrent.net].t2638.torrent 
Торрент: Зарегистрирован [ 2019-05-08 15:38 ] · 9600718046A1339CDBC5059D9F117E40B6B54C76

Скачать .torrent

Скачать

20 KB

Статус: проверено
Скачан: 0 раз
Размер: 3,73 GB
terms.php
Показать сообщения:    

Текущее время: 14-Ноя 09:45

Часовой пояс: UTC ± 0



Вы не можете начинать темы
Вы не можете отвечать на сообщения
Вы не можете редактировать свои сообщения
Вы не можете удалять свои сообщения
Вы не можете голосовать в опросах
Вы не можете прикреплять файлы к сообщениям
Вы можете скачивать файлы