Статистика раздачи
Размер:  2,13 GB   |    Зарегистрирован:  6 месяцев 6 дней   |    Скачан:  0 раз

Полного источника не было: Никогда

 
     
 
 

serzh ®

Пол:
Не указан
Стаж:
8 месяцев 2 дня
Сообщений:
384

Вальмон / Valmont
Страна: Франция, Великобритания
Жанр: драма, мелодрама
Год выпуска: 1989
Продолжительность: 02:11:04
Перевод: Одноголосый закадровый "Дохаловоподобный"
Субтитры: нет
Оригинальная аудиодорожка: английский
Режиссер: Милош Форман / Milos Forman
В ролях: Колин Фёрт, Аннетт Бенинг, Мег Тилли, Файруза Балк, Шан Филлипс, Джеффри Джонс,
Генри Томас, Фабия Дрейк, Т.П. МакКенна, Айла Блэр
Описание: Маркиза де Мертей — гениальный «кукловод» интимных отношений в высшем свете.
Блестящий Вальмон — герой донжуанского списка соблазненных и покинутых. Острейший аромат
далекой эпохи распространяют куртуазное обольщение, измены, дуэли, убийства.
Доп. информация: Дорожка с VO синхронизирована и наложена ale_x2008 при помощи Adobe Audition, Sony Vegas и VirtualDubMod.
За оцифрованную с VHS дорожку благодарим - Glowamy

Релиз
Сэмпл: https://yadi.sk/i/cRhudMUHRFUEEg
Качество видео: BDRip
Формат видео: AVI
Видео: XviD build 65, 720x304 (2.37:1), 25 fps, 1919 kbps avg, 0.35 bit/pixel
Аудио: AC3 Dolby Digital, 48000Hz, 2/0 (L,R) ch (mono), 192 kbps avg
Аудио 2: AC3 Dolby Digital, 48000Hz, 2/0 (L,R) ch, 192 kbps avg

MediaInfo

Вальмон - Valmont (by ale_X2008).avi
Format : AVI
Format/Info : Audio Video Interleave
Format profile : OpenDML
File size : 2.13 GiB
Duration : 2 h 11 min
Overall bit rate : 2 323 kb/s
Movie name : Вальмон / Valmont (1989) BDRip
Director : by ale_X2008
Writing application : VirtualDubMod 1.5.10.2 (build 2540/release)
Copyright : Edich2
Comment : RUtracker.org
Video
ID : 0
Format : MPEG-4 Visual
Format profile : Advanced Simple@L5
Format settings : BVOP1 / Custom Matrix
Format settings, BVOP : 1
Format settings, QPel : No
Format settings, GMC : No warppoints
Format settings, Matrix : Custom
Codec ID : XVID
Codec ID/Hint : XviD
Duration : 2 h 11 min
Bit rate : 1 920 kb/s
Width : 720 pixels
Height : 304 pixels
Display aspect ratio : 2.35:1
Frame rate : 25.000 FPS
Color space : YUV
Chroma subsampling : 4:2:0
Bit depth : 8 bits
Scan type : Progressive
Compression mode : Lossy
Bits/(Pixel*Frame) : 0.351
Stream size : 1.76 GiB (83%)
Writing library : XviD 65
Audio #1
ID : 1
Format : AC-3
Format/Info : Audio Coding 3
Codec ID : 2000
Duration : 2 h 11 min
Bit rate mode : Constant
Bit rate : 192 kb/s
Channel(s) : 2 channels
Channel positions : Front: L R
Sampling rate : 48.0 kHz
Frame rate : 31.250 FPS (1536 SPF)
Bit depth : 16 bits
Compression mode : Lossy
Stream size : 180 MiB (8%)
Alignment : Split accross interleaves
Interleave, duration : 40 ms (1.00 video frame)
Interleave, preload duratio : 500 ms
Service kind : Complete Main
Audio #2
ID : 2
Format : AC-3
Format/Info : Audio Coding 3
Codec ID : 2000
Duration : 2 h 11 min
Bit rate mode : Constant
Bit rate : 192 kb/s
Channel(s) : 2 channels
Channel positions : Front: L R
Sampling rate : 48.0 kHz
Frame rate : 31.250 FPS (1536 SPF)
Bit depth : 16 bits
Compression mode : Lossy
Stream size : 180 MiB (8%)
Alignment : Split accross interleaves
Interleave, duration : 40 ms (1.00 video frame)
Interleave, preload duratio : 500 ms
Service kind : Complete Main

Скриншоты


[cybertorrent.net].t2636.torrent 
Торрент: Зарегистрирован [ 2019-05-08 15:38 ] · 64437C4ABF784485F9BA297489E5F2942E02B951

Скачать .torrent

Скачать

11 KB

Статус: проверено
Скачан: 0 раз
Размер: 2,13 GB
terms.php
Профиль ЛС
Показать сообщения:    

Текущее время: 14-Ноя 22:00

Часовой пояс: UTC ± 0



Вы не можете начинать темы
Вы не можете отвечать на сообщения
Вы не можете редактировать свои сообщения
Вы не можете удалять свои сообщения
Вы не можете голосовать в опросах
Вы не можете прикреплять файлы к сообщениям
Вы можете скачивать файлы