Статистика раздачи
Размер:  2,51 GB   |    Зарегистрирован:  9 месяцев 20 дней   |    Скачан:  0 раз
Сидов:  4  [  0 KB/s  ]  
 
     
 
 

karlll ®

Пол:
Не указан
Стаж:
11 месяцев 16 дней
Сообщений:
197

Как приручить дракона 3 / How to Train Your Dragon: The Hidden World
Слоган: «Братья навеки»
Страна: США
Студия: DreamWorks Animation, Mad Hatter Entertainment
Жанр: Мультфильм, фэнтези, комедия, приключения, семейный
Продолжительность: 01:44:06
Год выпуска: 2019
Перевод: Профессиональный (дублированный) iTunes
Русские субтитры: нет--Режиссёр: Дин ДеБлуа / Dean DeBlois--Роли озвучивали: Кейт Бланшетт, Джерард Батлер, Джона Хилл, Кит Харингтон, Кристен Уиг, Джей Барушель, Кристофер Минц-Плассе, Америка Феррера, Оулавюр Дарри Оулафссон, Ф. Мюррэй Абрахам, Крэйг Фергюсон, Джастин Руппл--Описание: Когда-то викинги жили в гармонии с драконами. В те времена они делили радость, горе… и последние штаны. Казалось, что так будет всегда, но появление загадочной Дневной Фурии изменило жизнь острова. И теперь Иккинг и Беззубик столкнутся с безжалостным охотником на драконов, жаждущим уничтожить все, что им дорого.-- . --Качество: BDRip-AVC BDRemux.1080p Кинозал
Формат: MKV
Видео: AVC, 1120x476 (2.35:1), 2617 kbps, 23.976 fps, 0.205 bit/pixel.
Аудио 1: AC3 Dolby Digital, 3/2 (L,C,R,l,r) + LFE ch, 48.0 KHz, 384 Kbps | Дубляж. (iTunes) |
Аудио 2: AC3 Dolby Digital, 3/2 (L,C,R,l,r) + LFE ch, 48.0 KHz, 448 Kbps | Оригинал. Английский |
Субтитры: Английские (Full, SDH)
-Сэмпл--

Скриншоты

Подробные технические данные

x264

raw [info]: 1120x476p 1:1 @ 24000/1001 fps (cfr)
x264 [info]: using SAR=1/1
x264 [info]: using cpu capabilities: MMX2 SSE2Fast SSSE3 SSE4.2 AVX
x264 [info]: profile High, level 4.1, 4:2:0, 8-bit
x264 [info]: frame I:979 Avg QP:15.17 size: 70406
x264 [info]: frame P:35922 Avg QP:17.03 size: 27327
x264 [info]: frame B:112855 Avg QP:20.09 size: 8797
x264 [info]: consecutive B-frames: 2.5% 2.8% 12.9% 32.0% 18.4% 22.0% 2.4% 2.5% 2.7% 0.2% 0.2% 0.2% 0.1% 0.6% 0.6%
x264 [info]: mb I I16..4: 7.5% 70.0% 22.5%
x264 [info]: mb P I16..4: 1.8% 15.1% 2.9% P16..4: 35.8% 21.5% 15.4% 1.1% 0.4% skip: 6.1%
x264 [info]: mb B I16..4: 0.2% 1.2% 0.3% B16..8: 36.0% 12.6% 3.8% direct: 5.7% skip:40.1% L0:41.6% L1:42.9% BI:15.5%
x264 [info]: 8x8 transform intra:74.3% inter:58.9%
x264 [info]: coded y,uvDC,uvAC intra: 80.8% 78.2% 57.1% inter: 21.5% 16.5% 4.5%
x264 [info]: i16 v,h,dc,p: 20% 13% 7% 60%
x264 [info]: i8 v,h,dc,ddl,ddr,vr,hd,vl,hu: 9% 11% 9% 9% 12% 12% 13% 11% 15%
x264 [info]: i4 v,h,dc,ddl,ddr,vr,hd,vl,hu: 8% 7% 5% 10% 16% 13% 15% 11% 15%
x264 [info]: i8c dc,h,v,p: 42% 26% 16% 16%
x264 [info]: Weighted P-Frames: Y:7.2% UV:5.2%
x264 [info]: ref P L0: 49.8% 9.8% 14.7% 7.1% 4.7% 3.6% 2.9% 1.8% 1.5% 1.4% 1.3% 1.3% 0.2% 0.0%
x264 [info]: ref B L0: 77.9% 9.6% 4.6% 2.2% 1.7% 1.2% 1.0% 0.6% 0.5% 0.4% 0.2%
x264 [info]: ref B L1: 95.2% 4.8%
x264 [info]: kb/s:2617.19
General
Unique ID : 175532257141952389152495523072345885358 (0x840E48743B57BE81AC88760F4DAFCAAE)
Complete name : How to Train Your Dragon. The Hidden World (2019).mkv
Format : Matroska
Format version : Version 4
File size : 2.51 GiB
Duration : 1 h 44 min
Overall bit rate : 3 452 kb/s
Movie name : Как приручить дракона 3 / How to Train Your Dragon: The Hidden World (2019)
Encoded date : UTC 2019-04-18 09:02:19
Writing application : mkvmerge v8.1.0 ('Psychedelic Postcard') 64bit
Writing library : libebml v1.3.1 + libmatroska v1.4.2
Cover : Yes
Attachments : cover.jpeg
Video
ID : 1
Format : AVC
Format/Info : Advanced Video Codec
Format profile : High@L4.1
Format settings : CABAC / 12 Ref Frames
Format settings, CABAC : Yes
Format settings, ReFrames : 12 frames
Codec ID : V_MPEG4/ISO/AVC
Duration : 1 h 44 min
Bit rate : 2 617 kb/s
Width : 1 120 pixels
Height : 476 pixels
Display aspect ratio : 2.35:1
Frame rate mode : Constant
Frame rate : 23.976 (24000/1001) FPS
Color space : YUV
Chroma subsampling : 4:2:0
Bit depth : 8 bits
Scan type : Progressive
Bits/(Pixel*Frame) : 0.205
Stream size : 1.90 GiB (76%)
Title : How to Train Your Dragon: The Hidden World (2019) By optik.1557
Writing library : x264 core 157 r2935 545de2f
Encoding settings : cabac=1 / ref=12 / deblock=1:-3:-2 / analyse=0x3:0x133 / me=umh / subme=10 / psy=1 / psy_rd=1.05:0.01 / mixed_ref=1 / me_range=48 / chroma_me=1 / trellis=2 / 8x8dct=1 / cqm=0 / deadzone=21,11 / fast_pskip=0 / chroma_qp_offset=-2 / threads=6 / lookahead_threads=1 / sliced_threads=0 / nr=0 / decimate=1 / interlaced=0 / bluray_compat=0 / constrained_intra=0 / bframes=14 / b_pyramid=2 / b_adapt=2 / b_bias=0 / direct=1 / weightb=1 / open_gop=0 / weightp=2 / keyint=250 / keyint_min=23 / scenecut=40 / intra_refresh=0 / rc_lookahead=60 / rc=crf / mbtree=0 / crf=17.8 / qcomp=0.70 / qpmin=0 / qpmax=69 / qpstep=4 / vbv_maxrate=50000 / vbv_bufsize=62500 / crf_max=0.0 / nal_hrd=none / filler=0 / ip_ratio=1.40 / pb_ratio=1.30 / aq=3:0.85
Language : English
Default : Yes
Forced : No
Audio #1
ID : 2
Format : AC-3
Format/Info : Audio Coding 3
Commercial name : Dolby Digital
Codec ID : A_AC3
Duration : 1 h 44 min
Bit rate mode : Constant
Bit rate : 384 kb/s
Channel(s) : 6 channels
Channel layout : L R C LFE Ls Rs
Sampling rate : 48.0 kHz
Frame rate : 31.250 FPS (1536 SPF)
Bit depth : 16 bits
Compression mode : Lossy
Stream size : 286 MiB (11%)
Title : Дубляж (iTunes)
Language : Russian
Service kind : Complete Main
Default : Yes
Forced : No
Audio #2
ID : 3
Format : AC-3
Format/Info : Audio Coding 3
Commercial name : Dolby Digital
Codec ID : A_AC3
Duration : 1 h 44 min
Bit rate mode : Constant
Bit rate : 448 kb/s
Channel(s) : 6 channels
Channel layout : L R C LFE Ls Rs
Sampling rate : 48.0 kHz
Frame rate : 31.250 FPS (1536 SPF)
Bit depth : 16 bits
Compression mode : Lossy
Stream size : 334 MiB (13%)
Title : Original
Language : English
Service kind : Complete Main
Default : No
Forced : No
Text #1
ID : 4
Format : UTF-8
Codec ID : S_TEXT/UTF8
Codec ID/Info : UTF-8 Plain Text
Duration : 1 h 32 min
Bit rate : 47 b/s
Count of elements : 1102
Stream size : 32.1 KiB (0%)
Title : Full
Language : English
Default : No
Forced : No
Text #2
ID : 5
Format : UTF-8
Codec ID : S_TEXT/UTF8
Codec ID/Info : UTF-8 Plain Text
Duration : 1 h 32 min
Bit rate : 59 b/s
Count of elements : 1545
Stream size : 40.8 KiB (0%)
Title : SDH#1
Language : English
Default : No
Forced : No
Text #3
ID : 6
Format : UTF-8
Codec ID : S_TEXT/UTF8
Codec ID/Info : UTF-8 Plain Text
Duration : 1 h 43 min
Bit rate : 62 b/s
Count of elements : 1792
Stream size : 48.0 KiB (0%)
Title : SDH#2
Language : English
Default : No
Forced : No
Menu
00:00:00.000 : en:Chapter 1
00:05:13.521 : en:Chapter 2
00:10:26.834 : en:Chapter 3
00:14:52.224 : en:Chapter 4
00:20:33.065 : en:Chapter 5
00:24:38.685 : en:Chapter 6
00:28:40.885 : en:Chapter 7
00:31:10.118 : en:Chapter 8
00:37:35.127 : en:Chapter 9
00:44:38.550 : en:Chapter 10
00:47:53.579 : en:Chapter 11
00:53:11.021 : en:Chapter 12
00:57:36.286 : en:Chapter 13
01:01:25.056 : en:Chapter 14
01:08:55.923 : en:Chapter 15
01:14:17.703 : en:Chapter 16
01:19:31.141 : en:Chapter 17
01:23:23.289 : en:Chapter 18
01:28:24.716 : en:Chapter 19
01:33:53.377 : en:Chapter 20
[cybertorrent.net].t2622.torrent 
Торрент: Зарегистрирован [ 2019-05-08 15:38 ] · 4233F7147A8F794A338ABFA95B6FEB3EC68DA45A

Скачать .torrent

Скачать

13 KB

Статус: проверено
Скачан: 0 раз
Размер: 2,51 GB  ·  Тип торрента
terms.php
Профиль [ЛС]
Показать сообщения:    

Текущее время: 29-Фев 12:55

Часовой пояс: UTC ± 0



Вы не можете начинать темы
Вы не можете отвечать на сообщения
Вы не можете редактировать свои сообщения
Вы не можете удалять свои сообщения
Вы не можете голосовать в опросах
Вы не можете прикреплять файлы к сообщениям
Вы можете скачивать файлы