Статистика раздачи
Размер:  1,48 GB   |    Зарегистрирован:  6 месяцев 15 дней   |    Скачан:  0 раз

Полного источника не было: Никогда

 
     
 
 

serzh ®

Пол:
Не указан
Стаж:
8 месяцев 10 дней
Сообщений:
384

Пропащие ребята / Потерянные мальчишки / The Lost Boys
«Being wild is in their Blood»
Страна: США
Жанр: ужасы, триллер, комедия
Год выпуска: 1987
Продолжительность: 01:37:26
Перевод: Авторский (одноголосый закадровый) Леонид Володарский
Перевод 2: Профессиональный (двухголосый закадровый)
Перевод 3: Профессиональный (многоголосый закадровый) ТВ3
Субтитры: нет
Режиссер: Джоэл Шумахер / Joel Schumacher
В ролях: Джейсон Патрик, Кори Хэйм, Дайэнн Уист, Барнард Хьюз, Эдвард Херрманн, Кифер
Сазерленд, Джейми Герц, Кори Фельдман, Джемисон Ньюлэндер, Брук МакКартер
Описание: Сэм и его старший брат Майкл — американские подростки со своими типично
американскими интересами. Но после того как они переехали со своей мамой в тихий городок
Санта-Карла, в штате Калифорния, все вокруг внезапно начинает меняться самым таинственным
образом. С Майклом происходят странные перемены, и его маму сильно пугает такое неожиданное
перевоплощение сына.
Доп. информация: Дорожка с Л. Володарским синхронизирована и наложена ale_x2008 при помощи Adobe Audition, Sony Vegas и VirtualDubMod.
За оцифрованную с VHS дорожку благодарим - Mixa_12345_mixa
Дорожка с DVO синхронизирована и наложена ale_x2008 при помощи Adobe Audition, Sony Vegas и VirtualDubMod. Восстановлен правильный стереоэффект.
За предоставленную дорожку благодарим - devyanostnik 92
ТВ3 отсюда https://cybertorrent.ru/viewtopic.php?t=4241223
Релиз
Сэмпл: https://yadi.sk/i/hnHIcNAAPFLFdg
Качество видео: HDRip
Формат видео: AVI
Видео: 720x304 (2.37:1), 23.976 fps, XviD build 73 ~1572 kbps avg, 0.30 bit/pixel
Аудио: AC3 Dolby Digital, 48000Hz, 2/0 (L,R) ch (mono), 192 kbps avg
Аудио 2: AC3 Dolby Digital, 48000Hz, 2/0 (L,R) ch (stereo), 192 kbps avg
Аудио 3: AC3 Dolby Digital, 48000Hz, 2/0 (L,R) ch (mono), 192 kbps avg

MediaInfo

Пропащие ребята - The Lost Boys (by ale_x2008).avi
Format : AVI
Format/Info : Audio Video Interleave
File size : 1.48 GiB
Duration : 1 h 37 min
Overall bit rate : 2 168 kb/s
Movie name : Пропащие ребята - The Lost Boys (by ale_x2008)
Director : by ale_X2008
Writing application : VirtualDubMod 1.5.10.2 (build 2540/release)
Copyright : Edich2
Comment : RUTracker.org
Video
ID : 0
Format : MPEG-4 Visual
Format profile : Advanced Simple@L5
Format settings : BVOP1 / Custom Matrix
Format settings, BVOP : 1
Format settings, QPel : No
Format settings, GMC : No warppoints
Format settings, Matrix : Custom
Codec ID : XVID
Codec ID/Hint : XviD
Duration : 1 h 37 min
Bit rate : 1 573 kb/s
Width : 720 pixels
Height : 304 pixels
Display aspect ratio : 2.35:1
Frame rate : 23.976 (24000/1001) FPS
Color space : YUV
Chroma subsampling : 4:2:0
Bit depth : 8 bits
Scan type : Progressive
Compression mode : Lossy
Bits/(Pixel*Frame) : 0.300
Stream size : 1.07 GiB (73%)
Writing library : XviD 73
Audio #1
ID : 1
Format : AC-3
Format/Info : Audio Coding 3
Codec ID : 2000
Duration : 1 h 37 min
Bit rate mode : Constant
Bit rate : 192 kb/s
Channel(s) : 2 channels
Channel positions : Front: L R
Sampling rate : 48.0 kHz
Frame rate : 31.250 FPS (1536 SPF)
Bit depth : 16 bits
Compression mode : Lossy
Stream size : 134 MiB (9%)
Alignment : Split accross interleaves
Interleave, duration : 42 ms (1.00 video frame)
Interleave, preload duratio : 500 ms
Service kind : Complete Main
Audio #2
ID : 2
Format : AC-3
Format/Info : Audio Coding 3
Codec ID : 2000
Duration : 1 h 37 min
Bit rate mode : Constant
Bit rate : 192 kb/s
Channel(s) : 2 channels
Channel positions : Front: L R
Sampling rate : 48.0 kHz
Frame rate : 31.250 FPS (1536 SPF)
Bit depth : 16 bits
Compression mode : Lossy
Stream size : 134 MiB (9%)
Alignment : Split accross interleaves
Interleave, duration : 42 ms (1.00 video frame)
Interleave, preload duratio : 500 ms
Service kind : Complete Main
Audio #3
ID : 3
Format : AC-3
Format/Info : Audio Coding 3
Codec ID : 2000
Duration : 1 h 37 min
Bit rate mode : Constant
Bit rate : 192 kb/s
Channel(s) : 1 channel
Channel positions : Front: C
Sampling rate : 48.0 kHz
Frame rate : 31.250 FPS (1536 SPF)
Bit depth : 16 bits
Compression mode : Lossy
Stream size : 134 MiB (9%)
Alignment : Split accross interleaves
Interleave, duration : 42 ms (1.00 video frame)
Interleave, preload duratio : 500 ms
Service kind : Complete Main

Скриншоты


[cybertorrent.net].t2608.torrent 
Торрент: Зарегистрирован [ 2019-05-07 17:26 ] · 984820F7DF03F2D2332E53B9593D65EFD5F6B512

Скачать .torrent

Скачать

15 KB

Статус: проверено
Скачан: 0 раз
Размер: 1,48 GB
terms.php
Профиль [ЛС]
Показать сообщения:    

Текущее время: 23-Ноя 02:13

Часовой пояс: UTC ± 0



Вы не можете начинать темы
Вы не можете отвечать на сообщения
Вы не можете редактировать свои сообщения
Вы не можете удалять свои сообщения
Вы не можете голосовать в опросах
Вы не можете прикреплять файлы к сообщениям
Вы можете скачивать файлы