Статистика раздачи
Размер:  1,95 GB   |    Зарегистрирован:  6 месяцев 7 дней   |    Скачан:  0 раз

Полного источника не было: Никогда

 
     
 
 

karlll ®

Пол:
Не указан
Стаж:
8 месяцев 2 дня
Сообщений:
171

Ковёр-самолёт
Hodja fra Pjort | Up and Away
«Тысяча и одно приключение»- Страна: Дания
Жанр: мультфильм, семейный
Год выпуска: 2018
Продолжительность: 01:21:03-Перевод: Профессиональный (дублированный) | iTunes
Субтитры: Eng
Оригинальная аудиодорожка: датский
Режиссер: Карстен Килерих / Karsten Kiilerich-В ролях: Вибеке Дюхольм, Петер Фрёдин, Эрик Холми, Ребекка Ронде Килерих, Сонни Лэхи, Туре Линдхардт, Михаэль Зуков Мардорф, Сьюзи Пауэр, Биргитте Рааберг, Ларс Ранте--Описание:Главный герой растёт мечтательным мальчиком, который хочет увидеть мир. Его отец, смотря на жизнь куда более реалистично, настаивает, чтобы сын выбросил никчёмные мысли из головы и выучился на портного. Но мальчик не перестаёт мечтать о путешествиях в далекие края, и в один прекрасный день встречает купца ЭльФазу, который готов пожаловать ему ковер-самолёт, если мальчик отправится в большой город под властью султана, найдёт и возвратит ЭльФазе его маленькую внучку...-Sample
kinopoisk
IMDb: 5.70 (144)
релиз: -Качество видео: BDRip-AVC | Hodja.fra.Pjort.AKA.Up.and.Away.2018.BDREMUX.1080p.seleZen
Формат видео: MKV
Видео: AVC 2610 kb/s 1136 x 476 (2.387) 24.000 fps
Аудио: 48 kHz, AC3 Dolby Digital, 3/2 (L,C,R,l,r) + LFE ch, ~384 kbps iTunes
Аудио 2: AC-3 448 kb/s 6 channels, 48.0 kHz DAN

MediaInfo | Log

Log

x264 [info]: frame I:1053 Avg QP:13.73 size:114941
x264 [info]: frame P:30951 Avg QP:15.35 size: 26828
x264 [info]: frame B:84716 Avg QP:18.61 size: 7499
x264 [info]: consecutive B-frames: 3.3% 4.4% 11.8% 51.4% 12.5% 12.2% 1.8% 1.4% 0.5% 0.5% 0.2%
x264 [info]: mb I I16..4: 7.0% 56.9% 36.2%
x264 [info]: mb P I16..4: 0.5% 7.3% 2.0% P16..4: 22.8% 25.9% 15.5% 4.7% 0.8% skip:20.5%
x264 [info]: mb B I16..4: 0.1% 0.8% 0.2% B16..8: 22.8% 17.3% 4.3% direct: 4.1% skip:50.4% L0:37.9% L1:42.7% BI:19.5%
x264 [info]: 8x8 transform intra:70.8% inter:42.4%
x264 [info]: direct mvs spatial:100.0% temporal:0.0%
x264 [info]: coded y,uvDC,uvAC intra: 92.5% 90.9% 81.8% inter: 17.1% 16.8% 9.9%
x264 [info]: i16 v,h,dc,p: 14% 20% 12% 55%
x264 [info]: i8 v,h,dc,ddl,ddr,vr,hd,vl,hu: 12% 14% 9% 8% 10% 10% 11% 11% 15%
x264 [info]: i4 v,h,dc,ddl,ddr,vr,hd,vl,hu: 12% 13% 4% 8% 14% 12% 13% 10% 12%
x264 [info]: i8c dc,h,v,p: 42% 26% 17% 15%
x264 [info]: Weighted P-Frames: Y:2.5% UV:1.9%
x264 [info]: ref P L0: 53.4% 11.8% 12.8% 5.6% 4.1% 3.4% 2.7% 1.7% 1.5% 1.5% 1.5% 0.1% 0.0%
x264 [info]: ref B L0: 79.5% 8.5% 4.3% 2.1% 1.7% 1.3% 1.1% 0.7% 0.5% 0.3%
x264 [info]: ref B L1: 95.8% 4.2%
x264 [info]: kb/s:2610.06
x264 [total]: encoded 116720 frames, 15.24 fps, 2610.06 kb/s, duration 2:07:38.59
Format : Matroska
Format version : Version 4
File size : 1.95 GiB
Duration : 1 h 21 min
Overall bit rate : 3 444 kb/s
Encoded date : UTC 2019-05-06 12:37:31
Writing application : mkvmerge v8.2.0 ('World of Adventure') 64bit
Writing library : libebml v1.3.1 + libmatroska v1.4.2
Video
ID : 1
Format : AVC
Format/Info : Advanced Video Codec
Format profile : High@L4.1
Format settings : CABAC / 11 Ref Frames
Format settings, CABAC : Yes
Format settings, RefFrames : 11 frames
Codec ID : V_MPEG4/ISO/AVC
Duration : 1 h 21 min
Bit rate : 2 610 kb/s
Width : 1 136 pixels
Height : 476 pixels
Display aspect ratio : 2.40:1
Frame rate mode : Constant
Frame rate : 24.000 FPS
Color space : YUV
Chroma subsampling : 4:2:0
Bit depth : 8 bits
Scan type : Progressive
Bits/(Pixel*Frame) : 0.201
Stream size : 1.48 GiB (76%)
Title : Hodja fra Pjort (2018) rutracker.org
Writing library : x264 core 152 r2851kMod ba24899
Encoding settings : cabac=1 / ref=11 / deblock=1:-3:-2 / analyse=0x3:0x133 / me=umh / subme=11 / psy=1 / fade_compensate=0.00 / psy_rd=1.00:0.05 / mixed_ref=1 / me_range=48 / chroma_me=1 / trellis=2 / 8x8dct=1 / cqm=0 / deadzone=21,11 / fast_pskip=0 / chroma_qp_offset=-3 / threads=12 / lookahead_threads=3 / sliced_threads=0 / nr=0 / decimate=1 / interlaced=0 / bluray_compat=0 / constrained_intra=0 / bframes=10 / b_pyramid=2 / b_adapt=2 / b_bias=0 / direct=3 / weightb=1 / open_gop=0 / weightp=2 / keyint=250 / keyint_min=23 / scenecut=40 / intra_refresh=0 / rc_lookahead=60 / rc=crf / mbtree=0 / crf=16.4000 / qcomp=0.60 / qpmin=0 / qpmax=69 / qpstep=4 / vbv_maxrate=50000 / vbv_bufsize=62500 / crf_max=0.0 / nal_hrd=none / filler=0 / ip_ratio=1.40 / pb_ratio=1.30 / aq=3:0.90
Language : Danish
Default : Yes
Forced : No
Audio #1
ID : 2
Format : AC-3
Format/Info : Audio Coding 3
Commercial name : Dolby Digital
Codec ID : A_AC3
Duration : 1 h 21 min
Bit rate mode : Constant
Bit rate : 384 kb/s
Channel(s) : 6 channels
Channel layout : L R C LFE Ls Rs
Sampling rate : 48.0 kHz
Frame rate : 31.250 FPS (1536 SPF)
Bit depth : 16 bits
Compression mode : Lossy
Stream size : 223 MiB (11%)
Title : DUB [ iTunes]
Language : Russian
Service kind : Complete Main
Default : Yes
Forced : No
Audio #2
ID : 3
Format : AC-3
Format/Info : Audio Coding 3
Commercial name : Dolby Digital
Codec ID : A_AC3
Duration : 1 h 21 min
Bit rate mode : Constant
Bit rate : 448 kb/s
Channel(s) : 6 channels
Channel layout : L R C LFE Ls Rs
Sampling rate : 48.0 kHz
Frame rate : 31.250 FPS (1536 SPF)
Bit depth : 16 bits
Compression mode : Lossy
Stream size : 260 MiB (13%)
Title : Original
Language : Danish
Service kind : Complete Main
Default : No
Forced : No
Text
ID : 4
Format : UTF-8
Codec ID : S_TEXT/UTF8
Codec ID/Info : UTF-8 Plain Text
Duration : 1 h 15 min
Bit rate : 67 b/s
Count of elements : 1398
Stream size : 37.2 KiB (0%)
Title : Full
Language : English
Default : No
Forced : No
Menu
00:00:00.000 : :00:00:00.000
00:09:44.083 : :00:09:44.083
00:20:59.750 : :00:20:59.750
00:30:19.375 : :00:30:19.375
00:40:13.000 : :00:40:13.000
00:52:01.875 : :00:52:01.875
01:02:54.750 : :01:02:54.750
01:11:14.667 : :01:11:14.667[/pre]

Скриншоты



[cybertorrent.net].t2604.torrent 
Торрент: Зарегистрирован [ 2019-05-07 17:26 ] · A137C4B7BE1E651EF42825CFA1EC5C1677C62D3F

Скачать .torrent

Скачать

20 KB

Статус: проверено
Скачан: 0 раз
Размер: 1,95 GB
terms.php
Профиль ЛС
Показать сообщения:    

Текущее время: 14-Ноя 21:59

Часовой пояс: UTC ± 0



Вы не можете начинать темы
Вы не можете отвечать на сообщения
Вы не можете редактировать свои сообщения
Вы не можете удалять свои сообщения
Вы не можете голосовать в опросах
Вы не можете прикреплять файлы к сообщениям
Вы можете скачивать файлы