Статистика раздачи
Размер:  784 MB   |    Зарегистрирован:  6 месяцев 13 дней   |    Скачан:  0 раз

Полного источника не было: Никогда

 
     
 
 

karlll ®

Пол:
Не указан
Стаж:
8 месяцев 8 дней
Сообщений:
171

Трансформеры / Transformers: The Movie [Полноэкранная версия / Fullscreen version]
Страна: США, Япония
Жанр: Фантастика, боевик, приключения, семейный
Продолжительность: 01:24
Год выпуска: 1986
Перевод: Одноголосый закадровый (Азазель)
Русские субтитры: нет
Режиссёр: Нельсон Шин / Nelson Shin
Описание: Автоботы и Десептиконы продолжают войну за контроль над территорией в 2005 году. Войска Мегатрона завоевали Кибертрон, но Автоботы готовы это изменить. В масштабном конфликте старые герои падут и новые восстанут, в то время как планета — демон Юникрон будет приближаться к их родному миру.
Доп. информация: Завалялась avi'шка на харде. Решил поделиться, чтобы не потерять.
Отличия от ЭТОЙ раздачи:
1. Картинка и качество записи звука лучше (+ есть англ. дорожка).
2. Больше визуальной информации слева и справа.
3. Перевод тот же. Текст: Блэкбир. Читает: Азазель.
4. Размер файла чуть больше (примерно на 65 мб).
Семпл: https://yadi.sk/i/5RO_3hf9PeyUTQ
Качество: DVDRip
Формат: AVI
Видео: XviD, 640x480, 23,976 fps, 1030 kbps, 4:3
Аудио 1: MP3, 44,1 khz, 2 ch, 128 kbps (VO)
Аудио 2: MP3, 44,1 khz, 2 ch, 128 kbps (Английский, ОТДЕЛЬНО)
Субтитры: Отсутствуют

Подробные технические данные

Общее
Полное имя : D:\TORRENT\Transformers The Movie (Fullscreen) [XviD, AVI]\Transformers_-_The_Movie_(1986)_(Fullscreen)_(Rus-VO).avi
Формат : AVI
Формат/Информация : Audio Video Interleave
Размер файла : 706 Мбайт
Продолжительность : 1 ч. 24 м.
Общий поток : 1167 Кбит/сек
Программа кодирования : VirtualDubMod 1.5.10.2 (build 2542/release)
Библиотека кодирования : VirtualDubMod build 2542/release
Видео
Идентификатор : 0
Формат : MPEG-4 Visual
Профиль формата : Simple@L3
Параметр BVOP формата : Нет
Параметр QPel формата : Нет
Параметр GMC формата : Без точки перехода
Параметр матрицы формата : Default (H.263)
Идентификатор кодека : XVID
Идентификатор кодека/Подсказка : XviD
Продолжительность : 1 ч. 24 м.
Битрейт : 1030 Кбит/сек
Ширина : 640 пикселей
Высота : 480 пикселей
Соотношение сторон : 4:3
Частота кадров : 23,976 (24000/1001) кадра/сек
Цветовое пространство : YUV
Субдискретизация насыщенности : 4:2:0
Битовая глубина : 8 бит
Тип развёртки : Прогрессивная
Метод сжатия : С потерями
Бит/(Пиксели*Кадры) : 0.140
Размер потока : 623 Мбайт (88%)
Библиотека кодирования : XviD 1.1.0 (UTC 2005-11-22)
Аудио
Идентификатор : 1
Формат : MPEG Audio
Версия формата : Version 1
Профиль формата : Layer 3
Настройки формата : Joint stereo / MS Stereo
Идентификатор кодека : 55
Идентификатор кодека/Подсказка : MP3
Продолжительность : 1 ч. 24 м.
Вид битрейта : Постоянный
Битрейт : 128 Кбит/сек
Каналы : 2 канала
Частота : 44,1 КГц
Метод сжатия : С потерями
Размер потока : 77,5 Мбайт (11%)
Выравнивание : Разделение по промежуткам
Продолжительность промежутка : 42 мс. (1,00 видеокадр)
Время предзагрузки промежутка : 500 мс.

Скриншоты

Что нового?

6 мая 2019 г. - Вытащил англ. дорожку из видеофайла (чтобы размер видеофайла соответствовал правилам). Раздаю англ. дорожку отдельно.
4 мая 2019 г. – Выложил мульт.
P.S.: НЕ УБЕГАЙТЕ БЫСТРО С РАЗДАЧИ. СКАЧАЛ САМ - ПОМОГИ ДРУГОМУ!
[cybertorrent.net].t2601.torrent 
Торрент: Зарегистрирован [ 2019-05-07 17:26 ] · 113C7766DCE786888A3587191521CD41062E43F8

Скачать .torrent

Скачать

31 KB

Статус: проверено
Скачан: 0 раз
Размер: 784 MB
terms.php
Профиль [ЛС]
Показать сообщения:    

Текущее время: 21-Ноя 09:49

Часовой пояс: UTC ± 0



Вы не можете начинать темы
Вы не можете отвечать на сообщения
Вы не можете редактировать свои сообщения
Вы не можете удалять свои сообщения
Вы не можете голосовать в опросах
Вы не можете прикреплять файлы к сообщениям
Вы можете скачивать файлы